»
»

Скачать сериал Отверженные, 1 сезон 1-6 серии из 6 / Les Miserables [IdeaFilm] (Том Шенклэнд) [2018, драма, мелодрама, исторический, HDTVRip, Р] - торрент

Нажмите на синюю кнопку ниже, чтобы скачать сериал бесплатно через торрент. Сериал доступен на нашем торрент-трекере бесплатно, без регистрации и смс.

Статистика раздачи
5 [ 29.0 KB/s ] ↑ 4.9 GB ↓ 1 [ 0 b/s ]
Автор Сообщение
D4IVER
2019-01-10 01:26
Отверженные/ Les Miserables
Отверженные, 1 сезон 1-6 серии из 6 / Les Miserables [IdeaFilm]
Перевод: Профессиональный (многоголосый, закадровый) IdeaFilm
Субтитры: отсутствуют
Формат: HDTVRip, AVI, XviD, AC3
Страна: США, Великобритания
Режиссер: Том Шенклэнд
Жанр: Драма, мелодрама, исторический
Всего серий: 6
Продолжительность: 6 x ~ 01:00:00
Год выпуска: 2018

В ролях: Доминик Уэст, Дэвид Ойелоуо, Адиль Ахтар, Дэвид Брэдли, Эмма Филдинг, Энцо Чиленти, Оливия Колман, Лили Коллинз, Джош О’Коннор, Элли Бамбер, Эрин Келлиман, Джозеф Куинн, Алекс Джарретт, Рис Йейтс

Описание: Мини-сериал «Отверженные» — это очередная экранизация бессмертного романа Виктора Гюго о противостоянии бывшего каторжника Жана Вальжана и инспектора Жавера на фоне пост-наполеоновской Франции начала XIX века.

[imdb=http://www.imdb.com/title/tt5900600/]

Видео: 720x360 (2.00:1), 25.000 fps, XviD MPEG-4 ~1777 kbps avg, 0.274 bit/pixel
Аудио #1 Rus: 48 kHz, AC3 Dolby Digital, 2/0 (L,R), ~192 kbps

Внимание, присутствует реклама!

MediaInfo

Video
ID : 0
Format : MPEG-4 Visual
Format profile : Advanced Simple@L5
Format settings : BVOP2
Format settings, BVOP : 2
Format settings, QPel : No
Format settings, GMC : No warppoints
Format settings, Matrix : Default (H.263)
Muxing mode : Packed bitstream
Codec ID : XVID
Codec ID/Hint : XviD
Duration : 1 h 0 min
Bit rate : 1 777 kb/s
Width : 720 pixels
Height : 360 pixels
Display aspect ratio : 2.000
Frame rate : 25.000 FPS
Color space : YUV
Chroma subsampling : 4:2:0
Bit depth : 8 bits
Scan type : Progressive
Compression mode : Lossy
Bits/(Pixel*Frame) : 0.274
Stream size : 765 MiB (90%)
Writing library : XviD 67

Audio
ID : 1
Format : AC-3
Format/Info : Audio Coding 3
Commercial name : Dolby Digital
Codec ID : 2000
Duration : 1 h 0 min
Bit rate mode : Constant
Bit rate : 192 kb/s
Channel(s) : 2 channels
Channel positions : Front: L R
Sampling rate : 48.0 kHz
Frame rate : 31.250 FPS (1536 SPF)
Bit depth : 16 bits
Compression mode : Lossy
Stream size : 82.6 MiB (10%)
Alignment : Aligned on interleaves
Interleave, duration : 40 ms (1.00 video frame)
Interleave, preload duratio : 512 ms
Service kind : Complete Main

Информация о торренте:
Размер содержимого: 4.9 GB
Скачан: 943 раза
Статус: Проверен
Зарегистрирован на трекере: 2019-03-19 14:11
Скачать торрент


Поддержи раздачу — поставь лайк:
Писать комментарии на нашем торрент-трекере могут только зарегистрированные пользователи.
Зарегистрируйтесь или авторизируйтесь на сайте.