»
»

Скачать сериал Проект засекречен / Проект Синяя книга, 1 сезон 1-10 серии из 10 / Project Blue Book [IdeaFilm] (Роберт Стромберг, Норма Бэйли, Алекс Грейвз) [2019, детектив, история, реальные события, WEB-DLRip, Р] - торрент

Скачать сериал бесплатно через торрент. Сериал доступен на нашем торрент-трекере бесплатно, без регистрации и смс.

Статистика раздачи
22 [ 3.6 MB/s ] ↑ 5.6 GB ↓ 9 [ 557.0 KB/s ]
Автор Сообщение
D4IVER
2019-01-09 21:11
Проект засекречен / Проект Синяя книга / Project Blue Book
Проект засекречен / Проект Синяя книга, 1 сезон 1-10 серии из 10 / Project Blue Book [IdeaFilm]
Перевод: Профессиональный (многоголосый, закадровый) IdeaFilm
Субтитры: отсутствуют
Формат: WEB-DLRip, AVI, XviD, AC3
Страна: США
Режиссер: Роберт Стромберг, Норма Бэйли, Алекс Грейвз
Жанр: Детектив, история, реальные события
Всего серий: 10
Продолжительность: 10 х ~ 00:45:00
Год выпуска: 2019

В ролях: Эйден Гиллен, Майкл Маларки, Лора Меннелл, Ксения Соло, Майкл Харни, Нил МакДонаф, Роберт Джон Бёрк, Джилл Моррисон, Хезер Дорксен, Франческа Бьянчи

Описание: Сюжет отправляет зрителей в пятидесятые годы прошлого века. В центре внимания сюжета оказывается астроном Джон Аллен Хинек, который вместе с капитаном военно-воздушных сил Соединенных Штатов Америки Майклом Квинном занимается расследованием странных документов, свидетельствующих о появлении в небе неопознанных летающих объектов. Неужели все истории об инопланетянах правда? Или же это чья-то хитрая игра? Главные герои в ходе расследования выходят на людей из правительства, между которыми сложились доверительные отношения. Кажется, именно они устроили заговор, введший многих в заблуждение. Но какова правда?

[imdb=http://www.imdb.com/title/tt6632666/]

Видео: 720x360 (2.00:1), 23.976 fps, XviD MPEG-4 ~1671 kbps avg, 0.269 bit/pixel
Аудио #1 Rus: 48 kHz, AC3 Dolby Digital, 2/0 (L,R), ~192 kbps

Внимание, присутствует реклама!

MediaInfo

Video
ID : 0
Format : MPEG-4 Visual
Format profile : Advanced Simple@L5
Format settings : BVOP2
Format settings, BVOP : 2
Format settings, QPel : No
Format settings, GMC : No warppoints
Format settings, Matrix : Default (H.263)
Muxing mode : Packed bitstream
Codec ID : XVID
Codec ID/Hint : XviD
Duration : 44 min 54 s
Bit rate : 1 671 kb/s
Width : 720 pixels
Height : 360 pixels
Display aspect ratio : 2.000
Frame rate : 23.976 (24000/1001) FPS
Color space : YUV
Chroma subsampling : 4:2:0
Bit depth : 8 bits
Scan type : Progressive
Compression mode : Lossy
Bits/(Pixel*Frame) : 0.269
Stream size : 537 MiB (89%)
Writing library : XviD 67

Audio
ID : 1
Format : AC-3
Format/Info : Audio Coding 3
Commercial name : Dolby Digital
Codec ID : 2000
Duration : 44 min 54 s
Bit rate mode : Constant
Bit rate : 192 kb/s
Channel(s) : 2 channels
Channel positions : Front: L R
Sampling rate : 48.0 kHz
Frame rate : 31.250 FPS (1536 SPF)
Bit depth : 16 bits
Compression mode : Lossy
Stream size : 61.7 MiB (10%)
Alignment : Aligned on interleaves
Interleave, duration : 42 ms (1.00 video frame)
Interleave, preload duratio : 512 ms
Service kind : Complete Main

Информация о торренте:
Размер содержимого: 5.6 GB
Скачан: 2263 раза
Статус: Проверен
Зарегистрирован на трекере: 2019-03-15 21:12
Скачать торрент


Поддержи раздачу — поставь лайк:
Ягеловв
2019-01-31 14:38
Спасибо
Kleopatra772177.
2019-02-11 02:24
fridai
2019-02-28 21:34
Спасибо большое!
шлоссер
2019-03-17 12:06
:nice: Спасибо !Интересный сериал!
svksvksvk
2019-03-17 16:42
скачивается только 1 серия.
svksvksvk
2019-03-17 16:43
сори. при регистрации скачивается все.
Писать комментарии на нашем торрент-трекере могут только зарегистрированные пользователи.
Зарегистрируйтесь или авторизируйтесь на сайте.