»
»

Скачать сериал Проект засекречен / Проект Синяя книга, 1 сезон 1-7 серии из 10 / Project Blue Book [IdeaFilm] (Роберт Стромберг, Норма Бэйли, Алекс Грейвз) [2019, детектив, история, реальные события, WEB-DLRip 720p, Р] - торрент

Скачать бесплатный торрент сериал. Сериал доступен на нашем торрент-трекере бесплатно, без регистрации и смс.

Статистика раздачи
5 [ 0 b/s ] ↑ 9.7 GB ↓ 0 [ 0 b/s ]
Автор Сообщение
D4IVER
2019-01-09 21:11
Проект засекречен / Проект Синяя книга / Project Blue Book
Проект засекречен / Проект Синяя книга, 1 сезон 1-7 серии из 10 / Project Blue Book [IdeaFilm]
Перевод: Профессиональный (многоголосый, закадровый) IdeaFilm
Субтитры: отсутствуют
Формат: WEB-DLRip 720p, MKV, H.264, AC3
Страна: США
Режиссер: Роберт Стромберг, Норма Бэйли, Алекс Грейвз
Жанр: Детектив, история, реальные события
Всего серий: 10
Продолжительность: 7 х ~ 00:45:00
Год выпуска: 2019

В ролях: Эйден Гиллен, Майкл Маларки, Лора Меннелл, Ксения Соло, Майкл Харни, Нил МакДонаф, Роберт Джон Бёрк, Джилл Моррисон, Хезер Дорксен, Франческа Бьянчи

Описание: Сюжет отправляет зрителей в пятидесятые годы прошлого века. В центре внимания сюжета оказывается астроном Джон Аллен Хинек, который вместе с капитаном военно-воздушных сил Соединенных Штатов Америки Майклом Квинном занимается расследованием странных документов, свидетельствующих о появлении в небе неопознанных летающих объектов. Неужели все истории об инопланетянах правда? Или же это чья-то хитрая игра? Главные герои в ходе расследования выходят на людей из правительства, между которыми сложились доверительные отношения. Кажется, именно они устроили заговор, введший многих в заблуждение. Но какова правда?

[imdb=http://www.imdb.com/title/tt6632666/]

Видео: 1280x640 (2.00:1), 23.976 fps, AVC (х264), Main@L4.1, ~3924 kbps avg, 0.200 bit/pixel
Аудио #1 Rus: 48 kHz, AC3 Dolby Digital, 2/0 (L,R), ~192 kbps
Аудио #2 Eng: 48 kHz, AC3 Dolby Digital, 2/0 (L,R), ~384 kbps

Внимание, присутствует реклама!
Раздача ведется путем добавления новых серий.

Добавлена 7 серия.

Внимание! Раздача ведётся путём добавления новых серий

Внимание! Раздача ведётся путём добавления новых серий; при каждом добавлении создаётся новый торрент. Чтобы начать докачку новой серии, пользователям необходимо сделать следующее:
(1) остановить скачивание,
(2) удалить старый торрент у себя из клиента (старые серии удалять не надо),
(3) скачать новый торрент и запустить его у себя в клиенте вместо старого, при этом указать клиенту путь в старую папку куда и должно происходить скачивание новых серий.

Ваш клиент при этом должен произвести хеширование (проверку) старой папки (если не производит сам - помогите ему сделать это), и будет докачивать только те серии которых у вас ещё нет. Старые серии при этом не удаляются, а продолжают раздаваться!

Eсли вы уже удалили старые серии, то предотвратить повторную закачку старых серий можно, отжав галочку в соответствующих местах при запуске нового торрента. По возможности, желательно не удалять старые серии как можно дольше, чтобы релизёр не столько продолжал раздавать старые серии, а смог сконцентрироваться на новых.
MediaInfo

Video
ID : 1
Format : AVC
Format/Info : Advanced Video Codec
Format profile : Main@L3.1
Format settings : CABAC / 4 Ref Frames
Format settings, CABAC : Yes
Format settings, ReFrames : 4 frames
Codec ID : V_MPEG4/ISO/AVC
Duration : 44 min 54 s
Bit rate : 3 924 kb/s
Width : 1 280 pixels
Height : 640 pixels
Display aspect ratio : 2.000
Frame rate mode : Constant
Frame rate : 23.976 (24000/1001) FPS
Standard : NTSC
Color space : YUV
Chroma subsampling : 4:2:0
Bit depth : 8 bits
Scan type : Progressive
Bits/(Pixel*Frame) : 0.200
Stream size : 1.23 GiB (87%)
Language : English
Default : Yes
Forced : No
Color range : Limited
Color primaries : BT.709
Transfer characteristics : BT.709
Matrix coefficients : BT.709

Audio #1
ID : 2
Format : AC-3
Format/Info : Audio Coding 3
Commercial name : Dolby Digital
Codec ID : A_AC3
Duration : 44 min 54 s
Bit rate mode : Constant
Bit rate : 192 kb/s
Channel(s) : 2 channels
Channel positions : Front: L R
Sampling rate : 48.0 kHz
Frame rate : 31.250 FPS (1536 SPF)
Bit depth : 16 bits
Compression mode : Lossy
Stream size : 61.7 MiB (4%)
Title : IDEAFILM
Language : Russian
Service kind : Complete Main
Default : Yes
Forced : No

Audio #2
ID : 3
Format : AC-3
Format/Info : Audio Coding 3
Codec ID : A_AC3
Duration : 44 min 14 s
Bit rate : 384 kb/s
Channel(s) : 2 channels
Sampling rate : 48.0 kHz
Frame rate : 31.250 FPS (1536 SPF)
Compression mode : Lossy
Stream size : 122 MiB (8%)
Language : English
Default : No
Forced : No

Информация о торренте:
Размер содержимого: 9.7 GB
Скачан: 1680 раз
Статус: Обновляемая раздача
Зарегистрирован на трекере: 2019-02-20 14:31
Скачать торрент


Поддержи раздачу — поставь лайк:
E-mail:
* Это обновляемая раздача и мы можем вас информировать об обновлении торрента в ней.

10limonov
2019-01-28 10:43
Отличный сериал 10/10
Salamandra-Minsk
2019-02-06 11:11
А скоро 5-я серия будет?
Kleopatra772177.
2019-02-11 02:24
Писать комментарии на нашем торрент-трекере могут только зарегистрированные пользователи.
Зарегистрируйтесь или авторизируйтесь на сайте.