»
»

Скачать фильм Догмэн / Dogman (Маттео Гарроне ) [2018, Tриллер, драма, криминал, BDRip 720p] MVO - торрент

Скачать фильм бесплатно через торрент. Фильм доступен на нашем торрент-трекере бесплатно, без регистрации и смс.

Статистика раздачи
529 [ 0 b/s ] ↑ 4.8 GB ↓ 0 [ 0 b/s ]
Автор Сообщение
Lacky1907
2019-01-04 22:08
Догмэн / Dogman
Догмэн / Dogman
Перевод: Профессиональный (многоголосый закадровый) HDRezka Studio
Cубтитры: Aнглийские, итальянские
Формат: BDRip 720p, MKV, H.264, AC3
Страна: Италия, Франция
Режиссер: Маттео Гарроне
Жанр: Tриллер, драма, криминал
Продолжительность: 01:42:51
Год выпуска: 2018

В ролях: Марчелло Фонте, Эдоардо Пеше, Нунциа Скьяно, Адамо Дионизи, Франческо Аквароли, Джанлука Гобби, Алида Бальдари Калабрия, Лаура Пиццирани, Джанкарло Поркачча, Аньелло Арена

Описание: Марчелло - маленький человек с большим сердцем и грустными глазами. Он держит парикмахерскую для собак «Догмэн» и умеет усмирить ласковым словом и питбуля, и местного громилу Симоне, который терроризирует всю округу. Марчелло мечтает увезти любимую дочку в далекое путешествие, но по доброте душевной сопровождает Симоне в его криминальных вылазках, и однажды это приводит к катастрофе. Преданный другом, Марчелло впервые в жизни решается объявить настоящую войну.

[imdb=http://www.imdb.com/title/tt6768578/]


Видео: 1280x534 (2.40:1 ), 24,000 fps, AVC (х264), High@L4.1, ~5887 kbps avg, 0.359 bit/pixel
Аудио 1#: Русский: 48 kHz, AC3 Dolby Digital, 2/0 (L,R) ch, ~192 kbps [Профессиональный многоголосый]
Аудио 2#: Итальянский: 48 Khz, AC3 Dolby Digital, 3/2 (L,C,R,l,r) + LFE ch, ~640 kbps [Оригинал]

Релиз без рекламы

MediaInfo

General
Unique ID : 213124851607819273046788827678303378179 (0xA0565A75D4BD1247ADA59E6179DCDB03)
Complete name : Dogman.2018.BDRip.720p.mkv
Format : Matroska
Format version : Version 4 / Version 2
File size : 4.84 GiB
Duration : 1 h 42 min
Overall bit rate : 6 730 kb/s
Encoded date : UTC 2019-01-04 09:32:39
Writing application : mkvmerge v7.1.0 ('Good Love') 64bit built on Jul 27 2014 13:06:55
Writing library : libebml v1.3.0 + libmatroska v1.4.1

Video
ID : 1
Format : AVC
Format/Info : Advanced Video Codec
Format profile : High@L4.1
Format settings, CABAC : Yes
Format settings, RefFrames : 12 frames
Codec ID : V_MPEG4/ISO/AVC
Duration : 1 h 42 min
Bit rate : 5 887 kb/s
Width : 1 280 pixels
Height : 534 pixels
Display aspect ratio : 2.40:1
Frame rate mode : Constant
Frame rate : 24.000 FPS
Color space : YUV
Chroma subsampling : 4:2:0
Bit depth : 8 bits
Scan type : Progressive
Bits/(Pixel*Frame) : 0.359
Stream size : 4.23 GiB (87%)
Writing library : x264 core 157 r2867+103 0d6443f t_mod_Custom_2 [8-bit@all X86_64]
Encoding settings : cabac=1 / ref=12 / deblock=1:-3:-3 / analyse=0x3:0x133 / me=umh / subme=10 / psy=1 / fade_compensate=0.00 / psy_rd=1.10:0.00 / mixed_ref=1 / me_range=24 / chroma_me=1 / trellis=2 / 8x8dct=1 / cqm=0 / deadzone=21,11 / fast_pskip=0 / chroma_qp_offset=-2 / threads=12 / lookahead_threads=2 / sliced_threads=0 / nr=0 / decimate=0 / interlaced=0 / bluray_compat=0 / constrained_intra=0 / fgo=0 / bframes=8 / b_pyramid=2 / b_adapt=2 / b_bias=0 / direct=3 / weightb=1 / open_gop=0 / weightp=2 / keyint=250 / keyint_min=24 / scenecut=40 / intra_refresh=0 / rc_lookahead=60 / rc=crf / mbtree=0 / crf=15.5000 / qcomp=0.65 / qpmin=0:0:0 / qpmax=69:69:69 / qpstep=4 / vbv_maxrate=62500 / vbv_bufsize=78125 / crf_max=0.0 / nal_hrd=none / filler=0 / ip_ratio=1.30 / pb_ratio=1.20 / aq=3:0.80 / aq-sensitivity=10.00 / aq-factor=1.00:1.00:1.00 / aq2=0 / aq3=0
Language : English
Default : Yes
Forced : No
Color range : Limited
Matrix coefficients : BT.709

Audio #1
ID : 2
Format : AC-3
Format/Info : Audio Coding 3
Format settings, Endianness : Big
Codec ID : A_AC3
Duration : 1 h 42 min
Bit rate mode : Constant
Bit rate : 192 kb/s
Channel(s) : 2 channels
Channel positions : Front: L R
Sampling rate : 48.0 kHz
Frame rate : 31.250 FPS (1536 SPF)
Bit depth : 16 bits
Compression mode : Lossy
Stream size : 141 MiB (3%)
Title : MVO | HDRezka Studio
Language : Russian
Service kind : Complete Main
Default : Yes
Forced : No

Audio #2
ID : 3
Format : AC-3
Format/Info : Audio Coding 3
Format settings, Endianness : Big
Codec ID : A_AC3
Duration : 1 h 42 min
Bit rate mode : Constant
Bit rate : 640 kb/s
Channel(s) : 6 channels
Channel positions : Front: L C R, Side: L R, LFE
Sampling rate : 48.0 kHz
Frame rate : 31.250 FPS (1536 SPF)
Bit depth : 16 bits
Compression mode : Lossy
Stream size : 471 MiB (10%)
Language : Italian
Service kind : Complete Main
Default : No
Forced : No

Text #1
ID : 4
Format : PGS
Muxing mode : zlib
Codec ID : S_HDMV/PGS
Codec ID/Info : Picture based subtitle format used on BDs/HD-DVDs
Duration : 1 h 36 min
Bit rate : 11.8 kb/s
Count of elements : 1586
Stream size : 8.17 MiB (0%)
Language : Italian
Default : No
Forced : No

Text #2
ID : 5
Format : UTF-8
Codec ID : S_TEXT/UTF8
Codec ID/Info : UTF-8 Plain Text
Duration : 1 h 36 min
Bit rate : 31 b/s
Count of elements : 776
Stream size : 22.6 KiB (0%)
Language : English
Default : No
Forced : No


Информация о торренте:
Размер содержимого: 4.8 GB
Скачан: 452 раза
Статус: Проверен
Зарегистрирован на трекере: 2019-01-04 21:08
Скачать торрент


Поддержи раздачу — поставь лайк:

cuba64
2019-02-14 18:55
Спасибо!..
Писать комментарии на нашем торрент-трекере могут только зарегистрированные пользователи.
Зарегистрируйтесь или авторизируйтесь на сайте.