»
»

Скачать сериал Всё ещё открыто круглосуточно, 5 сезон 1-6 серии из 7 / Still Open All Hours [TVShows] (Дьюи Хэмпфри) [2018, Драма, WEB-DLRip 1080р, P] - торрент

Скачать бесплатный торрент сериал. Сериал доступен на нашем торрент-трекере бесплатно, без регистрации и смс.

Статистика раздачи
8 [ 0 b/s ] ↑ 8.8 GB ↓ 0 [ 0 b/s ]
Автор Сообщение
Lacky1907
2019-01-02 16:13
Всё ещё открыто круглосуточно / Still Open All Hours
Всё ещё открыто круглосуточно, 5 сезон 1-6 серии из 7 / Still Open All Hours [TVShows]
Перевод: Профессиональный (многоголосый закадровый) TVShows Cубтитры: Отсутствуют
Формат: WEB-DLRip 1080p, MKV, H.264, AC3
Страна: Великобритания
Режиссер: Дьюи Хэмпфри
Жанр: Драма
Всего серий: 7
Продолжительность: 6 x ~ 00:29:00
Год выпуска: 2018

В ролях: Джеффри Уайтхед, Сэлли Линдсэй, Тим Хили, Джонни Вегас, Кулвиндер Гир, Мэгги Оллереншоу, Бриджит Форсайт, Дэвид Джейсон, Стефани Коул, Джеймс Бакстер

Описание: Сиквел оригинального сериала BBC "Open All Hours", снятый по сценарию оригинальной версии Роя Кларка, и включающий несколько актеров из оригинального состава. Сюжет строиться вокруг небольшой бакалейной лавки, которой после смерти своего дяди Аркрайта управляет Грэнвилль на пару со своим непутевым сыном, зачатым в результате ночи любви в Блэкпуле. Вместе с магазином Грэнвилль унаследовал от дяди также его скупость, что постоянно приводит к забавным ситуациям.

[imdb=http://www.imdb.com/title/tt3425318/]


Видео: 1920x1080 (16:9), 50,000 fps, AVC (х264), High@L4.2, ~6389 kbps avg, 0.062 bit/pixel
Аудио 1#: Rus: 48 kHz, AC3 Dolby Digital, 2/0 (L,R) ch, ~384 kbps
Аудио 2#: Eng: 48 kHz, AAC LC, 2/0 (L,R) ch, ~124 kbps

Релиз без рекламы

Перевод:


Внимание! Раздача ведётся путём добавления новых серий

[Внимание! Раздача ведётся путём добавления новых серий; при каждом добавлении создаётся новый торрент. Чтобы начать докачку новой серии, пользователям необходимо сделать следующее:
(1) остановить скачивание,
(2) удалить старый торрент у себя из клиента (старые серии удалять не надо),
(3) скачать новый торрент и запустить его у себя в клиенте вместо старого, при этом указать клиенту путь в старую папку куда и должно происходить скачивание новых серий.

Ваш клиент при этом должен произвести хеширование (проверку) старой папки (если не производит сам - помогите ему сделать это), и будет докачивать только те серии которых у вас ещё нет. Старые серии при этом не удаляются, а продолжают раздаваться!

Eсли вы уже удалили старые серии, то предотвратить повторную закачку старых серий можно, отжав галочку в соответствующих местах при запуске нового торрента. По возможности, желательно не удалять старые серии как можно дольше, чтобы релизёр не столько продолжал раздавать старые серии, а смог сконцентрироваться на новых

MediaInfo

Общее
Уникальный идентификатор : 45025894941074080757904036692662168425 (0x21DFAC03DD99ED947BC0A60F68C02B69)
Полное имя : I:\Тифайл\Обновления - Тифайл\Still.Open.All.Hours.S05.1080p.TVShows\still.open.all.hours.s05e01.1080p.TVShow.mkv
Формат : Matroska
Версия формата : Version 4 / Version 2
Размер файла : 1,41 Гбайт
Продолжительность : 29 м. 12 с.
Общий поток : 6900 Кбит/сек
Дата кодирования : UTC 2018-12-13 11:41:09
Программа кодирования : mkvmerge v28.2.0 ('The Awakening') 32-bit
Библиотека кодирования : libebml v1.3.6 + libmatroska v1.4.9

Видео
Идентификатор : 1
Формат : AVC
Формат/Информация : Advanced Video Codec
Профиль формата : High@L4.2
Параметр CABAC формата : Да
Параметр ReFrames формата : 4 кадра
Идентификатор кодека : V_MPEG4/ISO/AVC
Продолжительность : 29 м. 12 с.
Битрейт : 6389 Кбит/сек
Ширина : 1920 пикселей
Высота : 1080 пикселей
Соотношение сторон : 16:9
Режим частоты кадров : Постоянный
Частота кадров : 50,000 кадров/сек
Цветовое пространство : YUV
Субдискретизация насыщенности : 4:2:0
Битовая глубина : 8 бит
Тип развёртки : Прогрессивная
Бит/(Пиксели*Кадры) : 0.062
Размер потока : 1,30 Гбайт (93%)
Библиотека кодирования : x264 core 157 r2932 303c484
Настройки программы : cabac=1 / ref=4 / deblock=1:0:0 / analyse=0x3:0x113 / me=hex / subme=8 / psy=1 / psy_rd=1.00:0.00 / mixed_ref=1 / me_range=16 / chroma_me=1 / trellis=2 / 8x8dct=1 / cqm=0 / deadzone=21,11 / fast_pskip=1 / chroma_qp_offset=-2 / threads=12 / lookahead_threads=2 / sliced_threads=0 / nr=0 / decimate=1 / interlaced=0 / bluray_compat=0 / constrained_intra=0 / bframes=3 / b_pyramid=2 / b_adapt=1 / b_bias=0 / direct=3 / weightb=1 / open_gop=0 / weightp=2 / keyint=250 / keyint_min=25 / scenecut=40 / intra_refresh=0 / rc_lookahead=50 / rc=crf / mbtree=1 / crf=17.0 / qcomp=0.60 / qpmin=0 / qpmax=69 / qpstep=4 / ip_ratio=1.40 / aq=1:1.00
Язык : English
Default : Да
Forced : Нет
Цветовой диапазон : Limited
Коэффициенты матрицы : BT.709

Аудио #1
Идентификатор : 2
Формат : AC-3
Формат/Информация : Audio Coding 3
Параметр Endianness формата : Big
Идентификатор кодека : A_AC3
Продолжительность : 29 м. 12 с.
Вид битрейта : Постоянный
Битрейт : 384 Кбит/сек
Каналы : 2 канала
Расположение каналов : Front: L R
Частота : 48,0 КГц
Частота кадров : 31,250 кадров/сек (1536 spf)
Битовая глубина : 16 бит
Метод сжатия : С потерями
Размер потока : 80,2 Мбайт (6%)
Заголовок : TVShows
Язык : Russian
ServiceKind/String : Complete Main
Default : Да
Forced : Да

Аудио #2
Идентификатор : 3
Формат : AAC
Формат/Информация : Advanced Audio Codec
Профиль формата : LC
Идентификатор кодека : A_AAC
Продолжительность : 29 м. 9 с.
Битрейт : 124 Кбит/сек
Каналы : 2 канала
Расположение каналов : Front: L R
Частота : 48,0 КГц
Частота кадров : 46,875 кадров/сек (1024 spf)
Метод сжатия : С потерями
Размер потока : 25,8 Мбайт (2%)
Заголовок : Original
Язык : English
Default : Нет
Forced : Нет


Информация о торренте:
Размер содержимого: 8.8 GB
Скачан: 580 раз
Статус: Некондиционная раздача
Зарегистрирован на трекере: 2019-01-02 15:13
Скачать торрент


Поддержи раздачу — поставь лайк:
Писать комментарии на нашем торрент-трекере могут только зарегистрированные пользователи.
Зарегистрируйтесь или авторизируйтесь на сайте.