»
»

Скачать фильм Год свиньи (Семён Яковлев) / [2018, комедия, WEB-DL 1080p] - торрент

Бесплатные торренты всегда на нашем сайте и в хорошем качестве! Фильм доступен на нашем торрент-трекере бесплатно, без регистрации и смс.

Статистика раздачи
2056 [ 28.0 KB/s ] ↑ 2.6 GB ↓ 0 [ 4.2 MB/s ]
Автор Сообщение
rainbow.n
2018-12-27 14:33
Год свиньи
Год свиньи Перевод: Не требуется
Субтитры: отсутствуют
Формат: WEB-DL, MKV, H.264, AC3
Страна: Россия
Режиссер: Семён Яковлев
Жанр: комедия
Продолжительность: 01:11:10
Год выпуска: 2018

В ролях: Максим Костромыкин, Юлия Александрова, Алина Алексеева, Александр Яценко, Борис Дергачев, Роза Хайруллина, Дарья Руденок, Сергей Стёпин, Юрий Ицков

Описание: Три новеллы, сюжетные линии которых переплетаются в самый последний и самый безумный день в году — 31 декабря. Молодой интерн впервые едет на дежурство в машине скорой помощи, но о реальной помощи пострадавшим в этот Новый год придется забыть. Тихий праздник одинокой кассирши оказывается под угрозой из-за внезапно упавшей с полки бутылки. Брат хочет признаться своему близнецу в измене с его женой, но все идет под откос из-за испорченной гирлянды…



Видео: 1920x1080p (16:9), 25 fps, AVC MPEG-4 (x264), High@L4.0, ~ 5000 kbps avg., 0.096 bit/pixel

Аудио: Русский: 48 kHz, AC3, 2/0 (L,R) ch, ~192.00 kbps avg
MI
General
Unique ID : 176612406239279464366729429735103548169 (0x84DE4FEA8BFF5AA990A500381B6C4B09)
Complete name : D:\God.svini.2018.WEB-DL.(1080p).Getty.mkv
Format : Matroska
Format version : Version 4 / Version 2
File size : 2.58 GiB
Duration : 1 h 11 min
Overall bit rate mode : Constant
Overall bit rate : 5 187 kb/s
Movie name : God.svini.2018.WEB-DL.(1080p).Getty
Encoded date : UTC 2018-12-26 22:01:35
Writing application : mkvmerge v7.8.0 ('River Man') 32bit built on Mar 27 2015 16:18:02
Writing library : libebml v1.3.1 + libmatroska v1.4.2

Video
ID : 1
Format : AVC
Format/Info : Advanced Video Codec
Format profile : Baseline@L4
Format settings : 4 Ref Frames
Format settings, CABAC : No
Format settings, ReFrames : 4 frames
Codec ID : V_MPEG4/ISO/AVC
Duration : 1 h 11 min
Bit rate mode : Constant
Bit rate : 5 000 kb/s
Width : 1 920 pixels
Height : 1 080 pixels
Display aspect ratio : 16:9
Frame rate mode : Constant
Frame rate : 25.000 FPS
Standard : PAL
Color space : YUV
Chroma subsampling : 4:2:0
Bit depth : 8 bits
Scan type : Progressive
Bits/(Pixel*Frame) : 0.096
Stream size : 2.48 GiB (96%)
Default : Yes
Forced : No
Color range : Limited
Color primaries : BT.709
Transfer characteristics : BT.709
Matrix coefficients : BT.709

Audio
ID : 2
Format : AC-3
Format/Info : Audio Coding 3
Codec ID : A_AC3
Duration : 1 h 11 min
Bit rate mode : Constant
Bit rate : 192 kb/s
Channel(s) : 2 channels
Channel positions : Front: L R
Sampling rate : 48.0 kHz
Frame rate : 31.250 FPS (1536 SPF)
Bit depth : 16 bits
Compression mode : Lossy
Stream size : 97.7 MiB (4%)
Service kind : Complete Main
Default : Yes
Forced : No

Информация о торренте:
Размер содержимого: 2.6 GB
Скачан: 2081 раз
Статус: Временная раздача
Зарегистрирован на трекере: 2018-12-27 13:33
Скачать торрент


Поддержи раздачу — поставь лайк:
timurshin
2018-12-29 22:47
супер
Писать комментарии на нашем торрент-трекере могут только зарегистрированные пользователи.
Зарегистрируйтесь или авторизируйтесь на сайте.