»
»

Скачать фильм Хищник / The Predator (Шейн Блэк) [2018, Ужасы, фантастика, боевик, триллер, приключения, Blu-ray EUR 1080p] 2xDUB(rus,ukr) - торрент

Скачать фильм через торрент бесплатно. Фильм доступен на нашем торрент-трекере бесплатно, без регистрации и смс.

Статистика раздачи
14 [ 0 b/s ] ↑ 41.5 GB ↓ 0 [ 0 b/s ]
Автор Сообщение
rainbow.n
2018-12-24 20:40
Хищник / The Predator
Хищник / The Predator Перевод: Профессиональный (полное дублирование)
Cубтитры: русские, английские, французские, испанские, немецкие, датские, голландские, финские, норвежские, шведские, эстонские, латвийские, литовские, вьетнамские, японские, украинские
Формат: Blu-ray, BDMV, H.264, DTS-HD (MA)/DTS/AC3
Страна: США, Канада
Режиссер: Шейн Блэк
Жанр: Ужасы, фантастика, боевик, триллер, приключения
Продолжительность: 01:46:56
Год выпуска: 2018

В ролях: Бойд Холбрук, Треванте Роудс, Джейкоб Трамбле, Кигэн-Майкл Ки, Оливия Манн, Стерлинг К. Браун, Томас Джейн, Элфи Оуэн-Аллен, Августо Агилера, Джейк Бьюзи

Описание: Главный герой, бывший морпех, обнаруживает злобную инопланетную расу на Земле, но никто не верит ему, что эти твари существуют. Его сын-аутист, которого все обижают в школе, становится ключевой фигурой в схватке с Хищниками, поскольку мальчик умеет невероятно быстро учить языки и, судя по всему, сможет понять пришельцев...

5,5/10 57 354

Видео: 1920x1080p (16:9) / 23.976 fps / AVC MPEG-4 (x264) / High@L4.1 / ~ 26905 kbps

Аудио#1: Английский: DTS-HD Master Audio / 7.1 / 48 kHz / 5095 kbps / 24-bit (DTS Core: 5.1-ES / 48 kHz / 1509 kbps / 24-bit) [Оригинал]
Аудио#2: Японский: DTS Audio / 5.1 / 48 kHz / 768 kbps / 24-bit
Аудио#3: Французский: DTS Audio / 5.1 / 48 kHz / 768 kbps / 24-bit
Аудио#4: Испанский: DTS Audio / 5.1 / 48 kHz / 768 kbps / 24-bit
Аудио#5: Немецкий: DTS Audio / 5.1 / 48 kHz / 768 kbps / 24-bit
Аудио#6: Итальянский: DTS Audio / 5.1 / 48 kHz / 768 kbps / 24-bit
Аудио#7: Русский: DTS Audio / 5.1 / 48 kHz / 768 kbps / 24-bit [Профессиональный (полное дублирование)]
Аудио#8: Украинский: Dolby Digital Audio / 5.1 / 48 kHz / 448 kbps [Профессиональный (полное дублирование)]
На диске
• Удалённые сцены
• Режиссёрское видение Блека
• Эволюция хищника
• Группа захвата
• Догнать хищника
• Галерея
• Ролик для кинотеатров
BDInfo
DISC INFO:

Disc Title: The Predator 2018 EUR
Disc Size: 44,542,820,093 bytes
Protection: AACS
Extras: BD-Java
BDInfo: 0.7.4.0

PLAYLIST REPORT:

Name: 00800.MPLS
Length: 1:46:56.827 (h:m:s.ms)
Size: 32,214,405,120 bytes
Total Bitrate: 40.16 Mbps

(*) Indicates included stream hidden by this playlist.

VIDEO:

Codec Bitrate Description
----- ------- -----------
MPEG-4 AVC Video 26905 kbps 1080p / 23.976 fps / 16:9 / High Profile 4.1

AUDIO:

Codec Language Bitrate Description
----- -------- ------- -----------
DTS-HD Master Audio English 5095 kbps 7.1 / 48 kHz / 5095 kbps / 24-bit (DTS Core: 5.1-ES / 48 kHz / 1509 kbps / 24-bit)
* DTS Audio Japanese 768 kbps 5.1 / 48 kHz / 768 kbps / 24-bit
DTS Audio French 768 kbps 5.1 / 48 kHz / 768 kbps / 24-bit
DTS Audio Spanish 768 kbps 5.1 / 48 kHz / 768 kbps / 24-bit
DTS Audio German 768 kbps 5.1 / 48 kHz / 768 kbps / 24-bit
DTS Audio Italian 768 kbps 5.1 / 48 kHz / 768 kbps / 24-bit
DTS Audio Russian 768 kbps 5.1 / 48 kHz / 768 kbps / 24-bit
Dolby Digital Audio Ukrainian 448 kbps 5.1 / 48 kHz / 448 kbps

SUBTITLES:

Codec Language Bitrate Description
----- -------- ------- -----------
Presentation Graphics English 0.042 kbps
* Presentation Graphics Japanese 15.298 kbps
Presentation Graphics English 49.196 kbps
* Presentation Graphics Japanese 0.357 kbps
Presentation Graphics French 37.702 kbps
Presentation Graphics Spanish 43.405 kbps
Presentation Graphics Danish 38.190 kbps
Presentation Graphics Dutch 39.225 kbps
Presentation Graphics Finnish 39.833 kbps
Presentation Graphics German 44.383 kbps
Presentation Graphics Italian 43.001 kbps
Presentation Graphics Norwegian 42.405 kbps
Presentation Graphics Russian 45.491 kbps
Presentation Graphics Swedish 43.562 kbps
Presentation Graphics Estonian 46.091 kbps
Presentation Graphics Latvian 43.946 kbps
Presentation Graphics Lithuanian 43.612 kbps
Presentation Graphics Ukrainian 44.435 kbps
Presentation Graphics Vietnamese 51.771 kbps

FILES:

Name Time In Length Size Total Bitrate
---- ------- ------ ---- -------------
00694.M2TS 0:00:00.000 0:26:32.882 7,966,507,008 40,011
00695.M2TS 0:26:32.882 0:00:28.528 141,133,824 39,577
00696.M2TS 0:27:01.411 0:29:35.648 8,955,131,904 40,346
00697.M2TS 0:56:37.060 0:01:44.104 533,329,920 40,984
00698.M2TS 0:58:21.164 0:48:35.662 14,618,302,464 40,110

Информация о торренте:
Размер содержимого: 41.5 GB
Скачан: 322 раза
Статус: Проверен
Зарегистрирован на трекере: 2018-12-24 19:40
Скачать торрент


Поддержи раздачу — поставь лайк:

Писать комментарии на нашем торрент-трекере могут только зарегистрированные пользователи.
Зарегистрируйтесь или авторизируйтесь на сайте.