»
»

Скачать Насыщенный / Bodied (Джозеф Кан) [2017, Драма, комедия, музыка, WEBRip 720p] MVO - торрент

Скачать через торрент бесплатно.

Статистика раздачи
2 [ 0 b/s ] ↑ 4.3 GB ↓ 0 [ 0 b/s ]
Автор Сообщение
IdeaFilm
2018-12-19 16:57
Насыщенный / Bodied
Насыщенный / Bodied Перевод: Профессиональный (многоголосый, закадровый) IdeaFilm
Субтитры: отсутствуют
Формат: WEBRip, MKV, h.264, AC3
Страна: США
Режиссер: Джозеф Кан
Жанр: Драма, комедия, музыка
Продолжительность: ~02:01:08
Год выпуска: 2018

В ролях: Кэлам Уорси, Джеки Лонг, Рори Упхолд, Джонатан Пак, Уолтер Перес, Шоникуа Шандай, Шарламань Та Бо, Дисастер, Дебра Уилсон, Энтони Майкл Холл

Описание: Фильм режиссёра Джозефа Кана, снятый по сценарию Алекса Ларсена и спродюсированный Эминемом. Аспирант Адам (Келам Уорти) становится конкурентноспособным баттл-рэпером после погружения в эту культуру во время работы над диссертацией на эту тему

Рейтинг на: [imdb=http://www.imdb.com/title/tt5883570/]

Видео: 1280x640 (2,000), 23,976 fps, AVC (х264), Main@L4.1, ~4500 kbps avg,0.229 bit/pixel
Аудио #1 Rus: :48 kHz, AC3 Dolby Digital, 3/2 (L,C,R,l,r) + LFE ch, ~384 kbps
Аудио #1 Eng: :48 kHz, AC3 Dolby Digital, 3/2 (L,C,R,l,r) + LFE ch, ~384 kbps

Внимание, присутствует реклама!

MediaInfo

Общее
Уникальный идентификатор : 52830824064080830123029958388666979271 (0x27BED8BB1DBF9DB6EAA2FBFE7255D3C7)
Полное имя : K:\IdeaFilm\Bodied.2017.WEBRip.720p.IdeaFilm.mkv
Формат : Matroska
Версия формата : Version 4
Размер файла : 4,35 Гбайт
Продолжительность : 2 ч. 1 м.
Общий поток : 5139 Кбит/сек
Дата кодирования : UTC 2018-12-18 21:33:39
Программа кодирования : mkvmerge v25.0.0 ('Prog Noir') 64-bit
Библиотека кодирования : libebml v1.3.6 + libmatroska v1.4.9

Видео
Идентификатор : 1
Формат : AVC
Формат/Информация : Advanced Video Codec
Профиль формата : High@L3.1
Настройки формата : CABAC / 4 Ref Frames
Параметр CABAC формата : Да
Параметр RefFrames формата : 4 кадра
Идентификатор кодека : V_MPEG4/ISO/AVC
Продолжительность : 2 ч. 1 м.
Битрейт : 4500 Кбит/сек
Ширина : 1280 пикселей
Высота : 640 пикселей
Соотношение сторон : 2,000
Режим частоты кадров : Постоянный
Частота кадров : 23,976 (24000/1001) кадра/сек
Цветовое пространство : YUV
Субдискретизация насыщенности : 4:2:0
Битовая глубина : 8 бит
Тип развёртки : Прогрессивная
Бит/(Пиксели*Кадры) : 0.229
Размер потока : 3,70 Гбайт (85%)
Библиотека кодирования : x264 core 130 r2273 b3065e6
Настройки программы : cabac=1 / ref=3 / deblock=1:0:0 / analyse=0x3:0x113 / me=hex / subme=2 / psy=1 / psy_rd=1.00:0.00 / mixed_ref=1 / me_range=16 / chroma_me=1 / trellis=1 / 8x8dct=1 / cqm=0 / deadzone=21,11 / fast_pskip=1 / chroma_qp_offset=0 / threads=24 / lookahead_threads=5 / sliced_threads=0 / nr=0 / decimate=1 / interlaced=0 / bluray_compat=0 / constrained_intra=0 / bframes=2 / b_pyramid=2 / b_adapt=1 / b_bias=0 / direct=1 / weightb=1 / open_gop=0 / weightp=2 / keyint=250 / keyint_min=23 / scenecut=40 / intra_refresh=0 / rc_lookahead=40 / rc=abr / mbtree=1 / bitrate=4500 / ratetol=1.0 / qcomp=0.60 / qpmin=0 / qpmax=69 / qpstep=4 / ip_ratio=1.40 / aq=1:1.00
Default : Да
Forced : Нет

Аудио #1
Идентификатор : 2
Формат : AC-3
Формат/Информация : Audio Coding 3
Коммерческое название : Dolby Digital
Идентификатор кодека : A_AC3
Продолжительность : 2 ч. 1 м.
Вид битрейта : Постоянный
Битрейт : 384 Кбит/сек
Каналы : 6 каналов
Channel layout : L R C LFE Ls Rs
Частота : 48,0 КГц
Частота кадров : 31,250 кадров/сек (1536 SPF)
Битовая глубина : 16 бит
Метод сжатия : С потерями
Размер потока : 333 Мбайт (7%)
Заголовок : IdeaFilm
Язык : Russian
ServiceKind/String : Complete Main
Default : Да
Forced : Нет

Аудио #2
Идентификатор : 3
Формат : AC-3
Формат/Информация : Audio Coding 3
Идентификатор кодека : A_AC3
Продолжительность : 2 ч. 0 м.
Битрейт : 384 Кбит/сек
Каналы : 6 каналов
Частота : 48,0 КГц
Частота кадров : 31,250 кадров/сек (1536 SPF)
Метод сжатия : С потерями
Размер потока : 331 Мбайт (7%)
Язык : English
Default : Нет
Forced : Нет

Информация о торренте:
Размер содержимого: 4.3 GB
Скачан: 90 раз
Статус: -
Зарегистрирован на трекере: 2018-12-19 15:57
Скачать торрент


Поддержи раздачу — поставь лайк:
rainbow.n
2018-12-19 19:20
Согласно требованиям правил раздела HD, скриншоты должны быть выполнены в формате PNG.
Писать комментарии на нашем торрент-трекере могут только зарегистрированные пользователи.
Зарегистрируйтесь или авторизируйтесь на сайте.