»
»

Скачать аниме Стеклянный цветок — разрушитель миров / Glass no Hana to Kowasu Sekai / Garakowa: Restore the World (Масаси Исихама) [CactusTeam] [Movie] [RUS][2015, аниме, приключения, фантастика, HDTVRip][720p] - торрент

Нажмите на синюю кнопку, чтобы скачать аниме через торрент бесплатно. Аниме доступен на нашем торрент-трекере бесплатно, без регистрации и смс.

Статистика раздачи
2 [ 0 b/s ] ↑ 1.3 GB ↓ 0 [ 0 b/s ]
Автор Сообщение
amnedos
2018-12-18 01:07
Стеклянный цветок — разрушитель миров / Glass no Hana to Kowasu Sekai / Garakowa: Restore the World
Стеклянный цветок — разрушитель миров / Glass no Hana to Kowasu Sekai / Garakowa: Restore the World Перевод: Любительский (многоголосый, закадровый), cубтитры: русские форсированные на надписи, русские полные (все отключаемые)
Формат: HDTVRip, MKV, H.264, AC3/AAC
Страна: Япония
Режиссер: Масаси Исихама
Жанр: аниме, приключения, фантастика
Продолжительность: 01:06:26
Год выпуска: 2015
Озвучка: CactusTeam - Ivaniska & Miori & Roya‑tian & Huck'MasterOK
В ролях: Риса Танэда, Юмири Ханамори, Аянэ Сакура, Ай Каяно

Описание: В странном виртуальном мире, называемом «Ящиком Мудрости», живут Дюаль и Дороти — две антивирусные программы, чья задача состоит в поиске вирусов и их уничтожении. Алгоритм прост: нужно распаковать очередной виртуальный мир из файлов бэкапа, войти в него, притворившись при помощи программного кода местной, проверить мир на предмет присутствия вирусов и удалить данные в случае заражения. Эта работа не всегда приятна, но Дюаль с Дороти не жалуются: они были созданы для заботы о Ящике Мудрости и браво охраняют его от посягательств вирусов. А потом, сразу после того, как Дюаль стирает очередной кишащий вирусами мир, их с Дороти размеренная жизнь меняется раз и навсегда. Откуда ни возьмись в их личное пространство вторгается третья юная особа — некая Римо, лишившаяся воспоминаний и понятия не имеющая, где оказалась. Проверив Римо на вирусы и сделав вывод о её безвредности, Дюаль с Дороти оставили её у себя и принялись искать ответ на вопрос, кто же такая эта загадочная гостья. Они и представить не могли, куда заведут их эти поиски.

[imdb=https://www.imdb.com/title/tt5330596/]
Хардсаб: отсутствует
Видео: 1280x720p (16:9), 23.976 fps, AVC MPEG-4 (x264), High 10@L5 ~ 2278 Kбит/сек, 0.103 bit/pixel
Аудио№1: 48 kHz, AC3 Dolby Digital, 2/0 (L,R) ch, ~224 kbps [Любительский (многоголосый, закадровый)]
Аудио№2: 48 kHz, AAC-LC, 2/0 (L,R) ch, ~ 330 kbps [Оригинал]
MediaInfo
Общее
Уникальный идентификатор : 206441859718900751154644684502977310822 (0x9B4F418555728871A0DF530A05B17066)
Полное имя : M:\glass.no.hana.to.kowasu.sekai.2015.HDTVRip.mkv
Формат : Matroska
Версия формата : Version 4 / Version 2
Размер файла : 1,32 Гбайт
Продолжительность : 1 ч. 6 м.
Общий поток : 2835 Кбит/сек
Дата кодирования : UTC 2016-11-14 19:40:29
Программа кодирования : mkvmerge v8.6.1 ('Flying') 64bit
Библиотека кодирования : libebml v1.3.3 + libmatroska v1.4.4

Видео
Идентификатор : 1
Формат : AVC
Формат/Информация : Advanced Video Codec
Профиль формата : High 10@L5
Настройки формата : CABAC / 16 Ref Frames
Параметр CABAC формата : Да
Параметр RefFrames формата : 16 кадров
Идентификатор кодека : V_MPEG4/ISO/AVC
Продолжительность : 1 ч. 6 м.
Битрейт : 2278 Кбит/сек
Ширина : 1280 пикселей
Высота : 720 пикселей
Соотношение сторон : 16:9
Режим частоты кадров : Постоянный
Частота кадров : 23,976 (24000/1001) кадра/сек
Цветовое пространство : YUV
Субдискретизация насыщенности : 4:2:0
Битовая глубина : 10 бит
Тип развёртки : Прогрессивная
Бит/(Пиксели*Кадры) : 0.103
Размер потока : 1,06 Гбайт (80%)
Библиотека кодирования : x264 core 142 r2431+42 c69a006 tMod [10-bit@all X86]
Настройки программы : cabac=1 / ref=16 / deblock=1:-1:-1 / analyse=0x3:0x133 / me=umh / subme=10 / psy=1 / fade_compensate=0.70 / psy_rd=0.77:0.00 / mixed_ref=1 / me_range=24 / chroma_me=1 / trellis=2 / 8x8dct=1 / cqm=0 / deadzone=21,11 / fast_pskip=1 / chroma_qp_offset=-2 / threads=18 / lookahead_threads=4 / sliced_threads=0 / nr=0 / decimate=1 / interlaced=0 / bluray_compat=0 / constrained_intra=0 / fgo=0 / bframes=12 / b_pyramid=2 / b_adapt=2 / b_bias=0 / direct=3 / weightb=1 / open_gop=0 / weightp=2 / keyint=250 / keyint_min=23 / scenecut=40 / intra_refresh=0 / rc_lookahead=60 / rc=crf / mbtree=1 / crf=16.0000 / qcomp=0.72 / qpmin=0:0:0 / qpmax=81:81:81 / qpstep=4 / ip_ratio=1.40 / aq=3:0.97 / aq-sensitivity=10.00 / aq-factor=1.00:1.00:1.00 / aq2=0 / aq3=0
Язык : Japanese
Default : Да
Forced : Да
Цветовой диапазон : Limited
Коэффициенты матрицы : BT.709

Аудио #1
Идентификатор : 2
Формат : AC-3
Формат/Информация : Audio Coding 3
Идентификатор кодека : A_AC3
Продолжительность : 1 ч. 6 м.
Вид битрейта : Постоянный
Битрейт : 224 Кбит/сек
Каналы : 2 канала
Расположение каналов : Front: L R
Частота : 48,0 КГц
Частота кадров : 31,250 кадров/сек (1536 SPF)
Битовая глубина : 16 бит
Метод сжатия : С потерями
Размер потока : 106 Мбайт (8%)
Заголовок : MVO [CactusTeam]
Язык : Russian
ServiceKind/String : Complete Main
Default : Да
Forced : Да

Аудио #2
Идентификатор : 3
Формат : AAC
Формат/Информация : Advanced Audio Codec
Профиль формата : LC
Идентификатор кодека : A_AAC-2
Продолжительность : 1 ч. 6 м.
Битрейт : 330 Кбит/сек
Каналы : 2 канала
Расположение каналов : Front: L R
Частота : 48,0 КГц
Частота кадров : 46,875 кадров/сек (1024 SPF)
Метод сжатия : С потерями
Размер потока : 157 Мбайт (12%)
Заголовок : Original
Язык : Japanese
Default : Нет
Forced : Нет

Текст #1
Идентификатор : 4
Формат : ASS
Идентификатор кодека : S_TEXT/ASS
Идентификатор кодека/Информация : Advanced Sub Station Alpha
Продолжительность : 45 м. 48 с.
Битрейт : 1 бит/сек
ElementCount : 6
Метод сжатия : Без потерь
Размер потока : 680 байт (0%)
Заголовок : Форсированные (надписи)
Язык : Russian
Default : Да
Forced : Да

Текст #2
Идентификатор : 5
Формат : ASS
Идентификатор кодека : S_TEXT/ASS
Идентификатор кодека/Информация : Advanced Sub Station Alpha
Продолжительность : 1 ч. 1 м.
Битрейт : 130 бит/сек
ElementCount : 807
Метод сжатия : Без потерь
Размер потока : 59,0 Кбайт (0%)
Заголовок : Полные
Язык : Russian
Default : Нет
Forced : Нет



Информация о торренте:
Размер содержимого: 1.3 GB
Скачан: 362 раза
Статус: Проверен
Зарегистрирован на трекере: 2018-12-18 00:08
Скачать торрент


Поддержи раздачу — поставь лайк:
amnedos
2018-12-18 00:40
Музыкальный трейлер

Писать комментарии на нашем торрент-трекере могут только зарегистрированные пользователи.
Зарегистрируйтесь или авторизируйтесь на сайте.