»
»

Скачать сериал Колдуньи (1-12 серии из 12) (Андерс Банке, Николай Михайлов (III)) / [2018, мелодрама, мистика, приключения, WEBRip-AVC] - торрент

Торрент можно скачать, нажав синюю кнопку ниже. Сериал доступен на нашем торрент-трекере бесплатно, без регистрации и смс.

Статистика раздачи
125 [ 43.0 KB/s ] ↑ 6.9 GB ↓ 1 [ 700.0 KB/s ]
Автор Сообщение
BLIZNEC W
2018-12-12 19:37
Колдуньи (1-12 серии из 12)
Колдуньи Перевод: Не требуется, cубтитры: отсутствуют
Формат: WEBRip-AVC, MKV, H.264, AC3
Страна: Украина
Режиссер: Андерс Банке, Николай Михайлов (III)
Жанр: мелодрама, мистика, приключения
Всего серий: 12
Продолжительность: 12 х 00:43:48
Год выпуска: 2018

В ролях: Слава Красовская, Екатерина Гулякова, Ольга Цицилинская, Алина Коваленко, Антонина Макарчук, Марина Куклина, Александр Кобзарь, Евгения Гладий, Дмитрий Суржиков, Андрей Фединчик, Вячеслав Хостикоев, Мария Северилова, Артур Логай, Александр Пожарский

Описание: Существование магии будоражит сознание людей на протяжении долгого времени. Большинство мечтает обладать мистическими способностями. Люди полагают, что подобный дар избавит их от бесконечных трудностей, позволит распоряжаться своей жизнь самостоятельно и без труда избавляться от неприятностей. Кажется, быть ведьмой мечта любой женщины. Трудно представить, что незавидная участь несет за собой множество последствий. Героиням предстоит узнать это на собственном опыте. История обычных девушек Ники, Марго, Сони и Дины, жизнь которых вращается вокруг карьеры, творчества, учебы и любви. Они сталкивались с трудностями, пытались решить их и не задумывались о магии. В их представлении мистические истории были плодом чужой фантазии. Не хватало времени думать о таких глупостях. Но однажды они случайно открывают доступ к Источнику Силы и получают магические способности. Теперь девушкам придется не только привыкать к своему новому статусу колдуний, но и бороться с мощной и опасной ведьмой…

Рейтинг и доп. информация:


Видео: 1024x576 (16:9), 25 fps, AVC MPEG-4 (x264), High@L4.1 ~ 1600 kbps , 0.109 bit/pixel
Аудио: 48 kHz, AC3, 2/0 (L,R) ch, ~192 kbps
MediaInfo
Общее
Уникальный идентификатор : 203792501775771516204546763038560408913 (0x99510216D974A9B7B7302431CAE4D551)
Полное имя : C:\Колдуньи.(2018).WEBRip.(AVC).Files-x\01.Колдуньи.(2018).WEBRip.(AVC).by.Серый1779.Files-x.mkv
Формат : Matroska
Версия формата : Version 2
Размер файла : 564 Мбайт
Продолжительность : 43 м. 59 с.
Общий поток : 1794 Кбит/сек
Дата кодирования : UTC 2018-12-12 10:08:10
Программа кодирования : mkvmerge v7.8.0 ('River Man') 32bit built on Apr 3 2015 12:11:22
Библиотека кодирования : libebml v1.3.1 + libmatroska v1.4.2

Видео
Идентификатор : 1
Формат : AVC
Формат/Информация : Advanced Video Codec
Профиль формата : High@L4.1
Настройки формата : CABAC / 9 Ref Frames
Параметр CABAC формата : Да
Параметр RefFrames формата : 9 кадров
Идентификатор кодека : V_MPEG4/ISO/AVC
Продолжительность : 43 м. 59 с.
Битрейт : 1600 Кбит/сек
Ширина : 1024 пикселя
Высота : 576 пикселей
Соотношение сторон : 16:9
Режим частоты кадров : Постоянный
Частота кадров : 25,000 кадров/сек
Цветовое пространство : YUV
Субдискретизация насыщенности : 4:2:0
Битовая глубина : 8 бит
Тип развёртки : Прогрессивная
Бит/(Пиксели*Кадры) : 0.109
Размер потока : 493 Мбайт (87%)
Библиотека кодирования : x264 core 146 r2538 121396c
Настройки программы : cabac=1 / ref=9 / deblock=1:-2:-1 / analyse=0x3:0x133 / me=umh / subme=9 / psy=1 / psy_rd=1.00:0.15 / mixed_ref=1 / me_range=32 / chroma_me=1 / trellis=2 / 8x8dct=1 / cqm=0 / deadzone=21,11 / fast_pskip=0 / chroma_qp_offset=-3 / threads=18 / lookahead_threads=3 / sliced_threads=0 / nr=0 / decimate=1 / interlaced=0 / bluray_compat=0 / constrained_intra=0 / bframes=9 / b_pyramid=2 / b_adapt=2 / b_bias=0 / direct=1 / weightb=1 / open_gop=0 / weightp=2 / keyint=250 / keyint_min=25 / scenecut=40 / intra_refresh=0 / rc=2pass / mbtree=0 / bitrate=1600 / ratetol=1.0 / qcomp=0.60 / qpmin=0 / qpmax=69 / qpstep=4 / cplxblur=20.0 / qblur=0.5 / ip_ratio=1.40 / pb_ratio=1.30 / aq=2:1.00
Default : Да
Forced : Нет
Цветовой диапазон : Limited
Основные цвета : BT.709
Характеристики трансфера : BT.709
Коэффициенты матрицы : BT.709

Аудио
Идентификатор : 2
Формат : AC-3
Формат/Информация : Audio Coding 3
Коммерческое название : Dolby Digital
Идентификатор кодека : A_AC3
Продолжительность : 43 м. 59 с.
Вид битрейта : Постоянный
Битрейт : 192 Кбит/сек
Каналы : 2 канала
Channel layout : L R
Частота : 48,0 КГц
Частота кадров : 31,250 кадров/сек (1536 SPF)
Битовая глубина : 16 бит
Метод сжатия : С потерями
Размер потока : 60,4 Мбайт (11%)
ServiceKind/String : Complete Main
Default : Да
Forced : Нет

Информация о торренте:
Размер содержимого: 6.9 GB
Скачан: 1760 раз
Статус: Проверен
Зарегистрирован на трекере: 2018-12-29 16:32
Скачать торрент


Поддержи раздачу — поставь лайк:
BLIZNEC W
2018-12-12 18:37
Интересного и приятного просмотра!!!

Мои раздачи
Shturm58
2018-12-15 21:55
Спасибо, BLIZNEC W !
Шоршик
2018-12-23 11:24
Спасибо!!!!!
zanoza7778
2019-01-09 00:06
игра актеров ужасная :(
Писать комментарии на нашем торрент-трекере могут только зарегистрированные пользователи.
Зарегистрируйтесь или авторизируйтесь на сайте.