»
»

Скачать сериал По праву любви (1-8 серии из 8) (Майя Сомова) / [2018, мелодрама, WEB-DLRip-AVC] - торрент

Скачать сериал через торрент бесплатно. Сериал доступен на нашем торрент-трекере бесплатно, без регистрации и смс.

Статистика раздачи
42 [ 66.0 KB/s ] ↑ 4.8 GB ↓ 1 [ 0 b/s ]
Автор Сообщение
BLIZNEC W
2018-12-11 17:15
По праву любви (1-8 серии из 8)
По праву любви Перевод: Не требуется, cубтитры: отсутствуют
Формат: WEB-DLRip-AVC, MKV, H.264, AC3
Страна: Украина
Режиссер: Майя Сомова
Жанр: мелодрама
Всего серий: 8
Продолжительность: 8 x ~ 00:47:52
Год выпуска: 2018

В ролях: Анастасия Иванова (II), Вадим Головко, Александр Рудько, Владлена Дедкова, Ольга Радчук, Анастасия Бунина, Елена Бондарева-Репина, Павел Москаль, Владимир Заец, Борис Книженко, Владимир Нечепоренко, Константин Данилюк, Акмал Гурезов, Антонина Макарчук, Сергей Козлов (VI), Сергей Солодов, Игорь Иващенко, Филипп Маркович, Станислав Щёкин, Светлана Зельбет, Юрий Лебедевич, Игорь Качур, Марина Дьяконенко, Алексей Сморгин, София Котлярова

Описание: Николай и Пётр дружат с детства и влюблены в одну девушку – Анну. Девушка выходит замуж за Петра, и Николай вынужден с этим смириться. Чтобы заработать денег, друзья нанимаются на рыболовецкое судно. Пётр погибает в море. Николай возвращается домой и становится опорой для молодой вдовы и маленького сына погибшего друга. Через несколько лет Анна соглашается выйти замуж за Николая. Они живут мирно и счастливо, пока не знакомятся с другой счастливой парой: девушкой Ирэной и её мужем, в котором Анна и Николай сразу узнают Петра. С изумлением они понимают, что Пётр не узнает их: он прошлого не помнит, и шанс, что вспомнит, равен нулю…

Рейтинг и доп. информация:


Видео: 1024x576 (16:9), 25 fps, AVC MPEG-4 (x264), High@L4.1 ~ 1600 kbps , 0.109 bit/pixel
Аудио: 48 kHz, AC3, 2/0 (L,R) ch, ~192 kbps
MediaInfo
General
Unique ID : 226922032900668613346783746037561630787 (0xAAB798049E295CEF80E8141871432043)
Complete name : C:\По праву любви.(2018).WEBLRip.(AVC).Files-x\01.По праву любви.(2018).WEBRip.(AVC).by.Серый1779.Files-x.mkv
Format : Matroska
Format version : Version 2
File size : 615 MiB
Duration : 47 min 58 s
Overall bit rate : 1 793 kb/s
Encoded date : UTC 2018-12-19 08:19:04
Writing application : mkvmerge v7.8.0 ('River Man') 32bit built on Apr 3 2015 12:11:22
Writing library : libebml v1.3.1 + libmatroska v1.4.2

Video
ID : 1
Format : AVC
Format/Info : Advanced Video Codec
Format profile : High@L4.1
Format settings, CABAC : Yes
Format settings, ReFrames : 9 frames
Codec ID : V_MPEG4/ISO/AVC
Duration : 47 min 58 s
Bit rate : 1 600 kb/s
Width : 1 024 pixels
Height : 576 pixels
Display aspect ratio : 16:9
Frame rate mode : Constant
Frame rate : 25.000 FPS
Color space : YUV
Chroma subsampling : 4:2:0
Bit depth : 8 bits
Scan type : Progressive
Bits/(Pixel*Frame) : 0.109
Stream size : 537 MiB (87%)
Writing library : x264 core 146 r2538 121396c
Encoding settings : cabac=1 / ref=9 / deblock=1:-2:-1 / analyse=0x3:0x133 / me=umh / subme=9 / psy=1 / psy_rd=1.00:0.15 / mixed_ref=1 / me_range=32 / chroma_me=1 / trellis=2 / 8x8dct=1 / cqm=0 / deadzone=21,11 / fast_pskip=0 / chroma_qp_offset=-3 / threads=18 / lookahead_threads=3 / sliced_threads=0 / nr=0 / decimate=1 / interlaced=0 / bluray_compat=0 / constrained_intra=0 / bframes=9 / b_pyramid=2 / b_adapt=2 / b_bias=0 / direct=1 / weightb=1 / open_gop=0 / weightp=2 / keyint=250 / keyint_min=25 / scenecut=40 / intra_refresh=0 / rc=2pass / mbtree=0 / bitrate=1600 / ratetol=1.0 / qcomp=0.60 / qpmin=0 / qpmax=69 / qpstep=4 / cplxblur=20.0 / qblur=0.5 / ip_ratio=1.40 / pb_ratio=1.30 / aq=2:1.00
Default : Yes
Forced : No
Color range : Limited
Color primaries : BT.709
Transfer characteristics : BT.709
Matrix coefficients : BT.709

Audio
ID : 2
Format : AC-3
Format/Info : Audio Coding 3
Format settings, Endianness : Big
Codec ID : A_AC3
Duration : 47 min 58 s
Bit rate mode : Constant
Bit rate : 192 kb/s
Channel(s) : 2 channels
Channel positions : Front: L R
Sampling rate : 48.0 kHz
Frame rate : 31.250 FPS (1536 spf)
Bit depth : 16 bits
Compression mode : Lossy
Stream size : 65.9 MiB (11%)
Service kind : Complete Main
Default : Yes
Forced : No

Информация о торренте:
Размер содержимого: 4.8 GB
Скачан: 725 раз
Статус: Проверен
Зарегистрирован на трекере: 2018-12-21 12:14
Скачать торрент


Поддержи раздачу — поставь лайк:
BLIZNEC W
2018-12-11 16:15
Интересного и приятного просмотра!!!

Мои раздачи
BLIZNEC W
2018-12-20 15:29
Замена на вариант без логотипа канала.
paradiz24
2019-02-11 23:17
Благодарю.
Писать комментарии на нашем торрент-трекере могут только зарегистрированные пользователи.
Зарегистрируйтесь или авторизируйтесь на сайте.