»
»

Скачать сериал В пустыне смерти, 3 сезон 1-16 серии из 16 / Into the Badlands [TVShows] (Пако Кабесас) [2018-2019, Боевик, драма, приключения, WEBRip 1080р, P] - торрент

Скачать бесплатный торрент сериал. Сериал доступен на нашем торрент-трекере бесплатно, без регистрации и смс.

Статистика раздачи
0 [ 0 b/s ] ↑ 51.9 GB ↓ 0 [ 0 b/s ]
Автор Сообщение
Lacky1907
2018-12-03 14:31
В пустыне смерти / Into the Badlands
В пустыне смерти, 3 сезон 1-16 серии из 16 / Into the Badlands [TVShows]
Перевод: Профессиональный (многоголосый закадровый) TVShows Субтитры: английские
Формат: WEBRip 1080p, MKV, H.264, AC3
Страна: США, Millar Gough Ink, Double Feature Films, AMC Studios
Режиссер: Пако Кабесас
Жанр: Боевик, драма, приключения, экранизация
Всего серий: 16
Продолжительность: 16 x ~ 00:42:00
Год выпуска: 2018-2019

В ролях: Дэниэл Ву, Орла Брэйди, Эмили Бичем, Арамис Найт, Элли Иоаннидес, Ник Фрост, Шерман Огастас, Бабу Сизей, Лоррейн Туссен, Элла-Рэй Смит, Льюис Тан, Чипо Чанг, Мэддисон Джайзани, Евгения Йуан

Описание: Приключенческий боевик о двух друзьях. В пустыне смерти, какие испытания предстоит пройти главным героям на пути просвещения. Ради обретения высшей мудрости мастер боевых искусств Санни и его юный напарник решают пройти через неизведанные земли. Они знают, что там их будут встречать враждебно, но ради высшей цели главные герои готовы вынести всё. В основу сюжета сериала был положен китайский роман под названием «Путешествие на Запад». Во время путешествия Санни покажет в полной мере своё мастерство, а его юный друг сможет многому научиться, и владению собственным телом, и контролю над собственным духом.

[imdb=http://www.imdb.com/title/tt3865236/]


Видео: 1920x1080 (16:9), 23,976 fps, AVC (х264), High@L4, ~9190 kbps avg, 0.185 bit/pixel
Аудио 1#: Rus: 48 kHz, AC3 Dolby Digital, 3/2 (L,C,R,l,r) + LFE ch, ~640 kbps
Аудио 2#: Eng: 48 kHz, E-AC3, 3/2 (L,C,R,l,r) + LFE ch, ~640 kbps

Релиз без рекламы


MediaInfo

Общее
Уникальный идентификатор : 135670242946145676741919124330726104610 (0x6611236A97C2DCE942D317EEE94D1E22)
Полное имя : I:\Тифайл\Скачанные на заливку\Into.The.Badlands.S03.1080p.TVShows\Into.The.Badlands.S03E01.1080p.TVShows.mkv
Формат : Matroska
Версия формата : Version 4 / Version 2
Размер файла : 3,11 Гбайт
Продолжительность : 42 м. 34 с.
Режим общего битрейта : Переменный
Общий поток : 10,5 Мбит/сек
Дата кодирования : UTC 2018-11-20 13:27:25
Программа кодирования : mkvmerge v28.2.0 ('The Awakening') 64-bit
Библиотека кодирования : libebml v1.3.6 + libmatroska v1.4.9
Обложка : Yes
Attachments : small_cover.jpg / cover.jpg / cover_land.jpg / small_cover_land.jpg

Видео
Идентификатор : 1
Формат : AVC
Формат/Информация : Advanced Video Codec
Профиль формата : High@L4
Параметр CABAC формата : Да
Параметр ReFrames формата : 4 кадра
Идентификатор кодека : V_MPEG4/ISO/AVC
Продолжительность : 42 м. 34 с.
Вид битрейта : Переменный
Битрейт : 9190 Кбит/сек
Максимальный битрейт : 15,0 Мбит/сек
Ширина : 1920 пикселей
Высота : 1080 пикселей
Соотношение сторон : 16:9
Режим частоты кадров : Постоянный
Частота кадров : 23,976 (24000/1001) кадра/сек
Цветовое пространство : YUV
Субдискретизация насыщенности : 4:2:0
Битовая глубина : 8 бит
Тип развёртки : Прогрессивная
Бит/(Пиксели*Кадры) : 0.185
Размер потока : 2,73 Гбайт (88%)
Default : Да
Forced : Нет
Цветовой диапазон : Limited
Основные цвета : BT.709
Характеристики трансфера : BT.709
Коэффициенты матрицы : BT.709

Аудио #1
Идентификатор : 2
Формат : AC-3
Формат/Информация : Audio Coding 3
Параметр Endianness формата : Big
Идентификатор кодека : A_AC3
Продолжительность : 42 м. 22 с.
Вид битрейта : Постоянный
Битрейт : 640 Кбит/сек
Каналы : 6 каналов
Расположение каналов : Front: L C R, Side: L R, LFE
Частота : 48,0 КГц
Частота кадров : 31,250 кадров/сек (1536 spf)
Битовая глубина : 16 бит
Метод сжатия : С потерями
Размер потока : 194 Мбайт (6%)
Заголовок : TVShows
Язык : Russian
ServiceKind/String : Complete Main
Default : Да
Forced : Да

Аудио #2
Идентификатор : 3
Формат : E-AC-3
Формат/Информация : Enhanced Audio Coding 3
Параметр Endianness формата : Big
Идентификатор кодека : A_EAC3
Продолжительность : 42 м. 33 с.
Вид битрейта : Постоянный
Битрейт : 640 Кбит/сек
Каналы : 6 каналов
Расположение каналов : Front: L C R, Side: L R, LFE
Частота : 48,0 КГц
Частота кадров : 187,500 кадров/сек (256 spf)
Метод сжатия : С потерями
Размер потока : 195 Мбайт (6%)
Заголовок : Original
Язык : English
ServiceKind/String : Complete Main
Default : Нет
Forced : Нет

Текст
Идентификатор : 4
Формат : UTF-8
Идентификатор кодека : S_TEXT/UTF8
Идентификатор кодека/Информация : UTF-8 Plain Text
Продолжительность : 41 м. 36 с.
Битрейт : 32 бит/сек
ElementCount : 341
Размер потока : 9,99 Кбайт (0%)
Заголовок : English
Язык : English
Default : Нет
Forced : Нет


Информация о торренте:
Размер содержимого: 51.9 GB
Скачан: 50 раз
Статус: Проверен
Зарегистрирован на трекере: 2019-11-22 02:29
Скачать торрент


Поддержи раздачу — поставь лайк:
Kleopatra772177.
2019-02-11 02:26
Писать комментарии на нашем торрент-трекере могут только зарегистрированные пользователи.
Зарегистрируйтесь или авторизируйтесь на сайте.