»
»

Скачать фильм Следы в прошлое (1-4 серии из 4) (Дмитрий Матов) / [2018, мелодрама, криминал, WEB-DL 720p] - торрент

Скачать через торрент фильм вы можете, нажав на синюю кнопку. Фильм доступен на нашем торрент-трекере бесплатно, без регистрации и смс.

Статистика раздачи
1 [ 0 b/s ] ↑ 4.7 GB ↓ 0 [ 0 b/s ]
Автор Сообщение
BLIZNEC W
2018-11-26 15:16
Следы в прошлое (1-4 серии из 4)
Следы в прошлое Страна: Украина
Перевод: не требуется
Формат: WEB-DL 720p, MKV, H.264, AC3
Режиссер: Дмитрий Матов
Жанр: мелодрама, криминал
Продолжительность: 4 х 00:46:00
Год выпуска: 2018

В ролях: Виктория Агалакова, Антон Момот, Евфросиния Мельник, Андрей Аверков, Анна Лебедева, Ольга Матешко, Сергей Деньга, Алексей Агопьян, Андрей Евсеенко, Сергей Миляев, Евгений Олейник, Вадим Залесский, Светлана Шекера, Антон Батырев, Олеся Власова, Сергей Детюк, Оксана Жданова, Наталья Ефремова, Валентин Томусяк, Людмила Дементьева, Игорь Рода, Максим Даньшин, Зоряна Коханчук, Анна Абрамёнок, Александр Агеенков, Наталья Кленина, Арсен Босенко, Ирина Калашникова, Елена Снигуренко, Олег Щербина (II), Владислав Писаренко, Павел Алдошин, Юрий Фреган, Мирослава Лясота, Александр Комендантов, Роман Якимчук, Алексей Кокров, Дарья Коновал, Виктор Куц, Наталья Смирнова (VI)

Описание: Талантливый архитектор Юля Грановская после разрыва с женихом возвращается из столицы в свой родной город, устраивается на работу в фирму отчима, Романа Зайцева, в которой когда-то работал главным архитектором ее отец Игорь Грановский. Прошло двенадцать лет с момента исчезновения отца, до сих пор не ясно, где он сейчас. Мать Юли Ольга уверена - ее бывший муж предал их с Юлей, обокрал фирму Зайцева и уехал из города к другой женщине, с которой у него был любовный роман. Полиция разделяет уверенность Ольги. Юля ставит под сомнение официальную версию исчезновения Грановского. После разговора с бывшей секретаршей отца, Юля начинает собственное расследование, еще не подозревая, сколько опасностей ее подстерегает на этом пути. Ей предстоит раскрыть шокирующую правду, узнать цену предательства, побывать в шаге от смерти, и... снова влюбиться.

Рейтинг и доп. информация:


Видео: 1280х720 (16:9), 25 fps, AVC MPEG-4 (x264), High@L4.1 ~ 3500 kbps , 0.152 bit/pixel
Аудио: 44,1 kHz, АС3, 2/0 (L,R), ~192.00 kbps avg
MediaInfo
Общее
Уникальный идентификатор : 242040228414827301110137440417118554912 (0xB617409AFEDB94E09AADFDA4C23A0B20)
Полное имя : C:\Следы в прошлое.(2018).WEB-DL (720p).by.Nicodem.Files-x\01.Следы в прошлое.(2018).WEB-DL (720p).by.Nicodem.Files-x.mkv
Формат : Matroska
Версия формата : Version 4
Размер файла : 1,18 Гбайт
Продолжительность : 46 м. 5 с.
Общий поток : 3663 Кбит/сек
Программа кодирования : Lavf56.36.100
Библиотека кодирования : Lavf56.36.100

Видео
Идентификатор : 1
Формат : AVC
Формат/Информация : Advanced Video Codec
Профиль формата : High@L4.1
Настройки формата : CABAC / 5 Ref Frames
Параметр CABAC формата : Да
Параметр RefFrames формата : 5 кадров
Идентификатор кодека : V_MPEG4/ISO/AVC
Продолжительность : 46 м. 5 с.
Битрейт : 3500 Кбит/сек
Ширина : 1280 пикселей
Высота : 720 пикселей
Соотношение сторон : 16:9
Режим частоты кадров : Постоянный
Частота кадров : 25,000 кадров/сек
Цветовое пространство : YUV
Субдискретизация насыщенности : 4:2:0
Битовая глубина : 8 бит
Тип развёртки : Прогрессивная
Бит/(Пиксели*Кадры) : 0.152
Размер потока : 1,09 Гбайт (93%)
Библиотека кодирования : x264 core 148
Настройки программы : cabac=1 / ref=5 / deblock=1:0:0 / analyse=0x3:0x113 / me=hex / subme=8 / psy=1 / psy_rd=1.00:0.00 / mixed_ref=1 / me_range=16 / chroma_me=1 / trellis=2 / 8x8dct=1 / cqm=0 / deadzone=21,11 / fast_pskip=1 / chroma_qp_offset=-2 / threads=22 / lookahead_threads=3 / sliced_threads=0 / nr=0 / decimate=1 / interlaced=0 / bluray_compat=0 / constrained_intra=0 / bframes=3 / b_pyramid=2 / b_adapt=1 / b_bias=0 / direct=3 / weightb=1 / open_gop=0 / weightp=2 / keyint=250 / keyint_min=25 / scenecut=0 / intra_refresh=0 / rc_lookahead=50 / rc=abr / mbtree=1 / bitrate=3500 / ratetol=1.0 / qcomp=0.60 / qpmin=0 / qpmax=69 / qpstep=4 / ip_ratio=1.40 / aq=1:1.00
Default : Да
Forced : Нет

Аудио
Идентификатор : 2
Формат : AC-3
Формат/Информация : Audio Coding 3
Коммерческое название : Dolby Digital
Идентификатор кодека : A_AC3
Продолжительность : 46 м. 5 с.
Вид битрейта : Постоянный
Битрейт : 192 Кбит/сек
Каналы : 2 канала
ChannelLayout : L R
Частота : 44,1 КГц
Частота кадров : 28,711 кадров/сек (1536 SPF)
Метод сжатия : С потерями
Задержка видео : -80 мс.
Размер потока : 63,3 Мбайт (5%)
Язык : unknown
ServiceKind/String : Complete Main
Default : Да
Forced : Нет

Информация о торренте:
Размер содержимого: 4.7 GB
Скачан: 277 раз
Статус: Проверен
Зарегистрирован на трекере: 2020-02-26 15:44
Скачать торрент


Поддержи раздачу — поставь лайк:
BLIZNEC W
2018-11-26 14:16
Интересного и приятного просмотра!!!

Мои раздачи
BLIZNEC W
2020-02-26 15:49
Замена на релиз без ЛОГО канала 26.02.2020г.
Svoron
2020-02-28 14:36
Спасибо!!!!!
Писать комментарии на нашем торрент-трекере могут только зарегистрированные пользователи.
Зарегистрируйтесь или авторизируйтесь на сайте.