»
»

Скачать мультфильм Затерянные в стране Оз, 2 сезон 1-13 серии из 13 / Lost in Oz (Пол Стодольный) [2018, мультфильм, семейный, приключения, WEB-DL 1080p] DVO - торрент

Бесплатные торренты всегда на нашем сайте и в хорошем качестве! Мультфильм доступен на нашем торрент-трекере бесплатно, без регистрации и смс.

Статистика раздачи
5 [ 4.0 KB/s ] ↑ 13.7 GB ↓ 0 [ 0 b/s ]
Автор Сообщение
NewSation
2018-11-20 03:43
Затерянные в стране Оз / Lost in Oz
Затерянные в стране Оз, 2 сезон 1-13 серии из 13 / Lost in Oz
Перевод: Любительский (двухголосый) NewStation
Субтитры: Английские
Формат: WEB-DL 1080p, MKV, H.264, AC3, E-AC3
Страна: США, Канада, Великобритания
Режиссер: Пол Стодольный
Жанр: мультфильм, семейный, приключения
Продолжительность: 13 x ~00:22:47
Год выпуска: 2018

В ролях: Ландри Бендер, Ника Футтерман, Хорхе Диас, Крис Кокс, Александр Полински, Эллисон Мэк, Стефен Стэнтон

Описание: 12-ти летняя Дороти Гейл и ее верный пес Тото отправляются на поиски Доброй Глинды, в надежде, что она сможет дать им магию, необходимую им для возвращения домой. По пути они встречают удивительных друзей и вместе отправляются за приключениям, которые они и не могли представить.

[imdb=http://www.imdb.com/title/tt4677846/]

Видео: 1920x1080 (16:9), 23,976 кадров/сек, AVC (H.264) High@L4.1, ~5507 Кбит/сек, 0.111 bit/pixel
Аудио #1: Русский: 48 kHz, AC-3, 6ch, ~640 kbps
Аудио #2: Английский: 48 kHz, E-AC3, 6ch, ~640 kbps

MediaInfo
Общее
Уникальный идентификатор : 44810058451837405724386484674955397077 (0x21B61A745F87D7192FAEEB94D8C947D5)
Полное имя : F:\NewStation\Lost.in.Oz.S02.WEB-DL.1080p.NewStation\Lost.in.Oz.S02E01.WEB-DL.1080p.NewStation.mkv
Формат : Matroska
Версия формата : Version 4 / Version 2
Размер файла : 1,09 Гбайт
Продолжительность : 22 м. 58 с.
Общий поток : 6789 Кбит/сек
Дата кодирования : UTC 2018-11-19 23:03:20
Программа кодирования : mkvmerge v28.1.0 ('Morning Child') 64-bit
Библиотека кодирования : libebml v1.3.6 + libmatroska v1.4.9

Видео
Идентификатор : 1
Формат : AVC
Формат/Информация : Advanced Video Codec
Профиль формата : High@L4.1
Настройки формата : CABAC / 4 Ref Frames
Параметр CABAC формата : Да
Параметр RefFrames формата : 4 кадра
Идентификатор кодека : V_MPEG4/ISO/AVC
Продолжительность : 22 м. 58 с.
Битрейт : 5507 Кбит/сек
Ширина : 1920 пикселей
Высота : 1080 пикселей
Соотношение сторон : 16:9
Режим частоты кадров : Постоянный
Частота кадров : 23,976 (24000/1001) кадра/сек
Цветовое пространство : YUV
Субдискретизация насыщенности : 4:2:0
Битовая глубина : 8 бит
Тип развёртки : Прогрессивная
Бит/(Пиксели*Кадры) : 0.111
Размер потока : 905 Мбайт (81%)
Default : Да
Forced : Нет
Цветовой диапазон : Limited
Основные цвета : BT.709
Характеристики трансфера : BT.709
Коэффициенты матрицы : BT.709

Аудио #1
Идентификатор : 2
Формат : AC-3
Формат/Информация : Audio Coding 3
Идентификатор кодека : A_AC3
Продолжительность : 22 м. 58 с.
Вид битрейта : Постоянный
Битрейт : 640 Кбит/сек
Каналы : 6 каналов
Расположение каналов : Front: L C R, Side: L R, LFE
Частота : 48,0 КГц
Частота кадров : 31,250 кадров/сек (1536 SPF)
Битовая глубина : 16 бит
Метод сжатия : С потерями
Размер потока : 105 Мбайт (9%)
Заголовок : NewStation
Язык : Russian
ServiceKind/String : Complete Main
Default : Да
Forced : Нет

Аудио #2
Идентификатор : 3
Формат : E-AC-3
Формат/Информация : Enhanced Audio Coding 3
Идентификатор кодека : A_EAC3
Продолжительность : 22 м. 58 с.
Вид битрейта : Постоянный
Битрейт : 640 Кбит/сек
Каналы : 6 каналов
Расположение каналов : Front: L C R, Side: L R, LFE
Частота : 48,0 КГц
Частота кадров : 187,500 кадров/сек (256 SPF)
Метод сжатия : С потерями
Размер потока : 105 Мбайт (9%)
Заголовок : Original
ServiceKind/String : Complete Main
Default : Нет
Forced : Нет

Текст
Идентификатор : 4
Формат : UTF-8
Идентификатор кодека : S_TEXT/UTF8
Идентификатор кодека/Информация : UTF-8 Plain Text
Продолжительность : 22 м. 16 с.
Битрейт : 61 бит/сек
ElementCount : 421
Размер потока : 10,0 Кбайт (0%)
Язык : English
Default : Нет
Forced : Нет
Внимание! Раздача ведётся путём добавления новых серий
Внимание! Раздача ведётся путём добавления новых серий; при каждом добавлении создаётся новый торрент. Чтобы начать докачку новой серии, пользователям необходимо сделать следующее:
(1) остановить скачивание,
(2) удалить старый торрент у себя из клиента (старые серии удалять не надо),
(3) скачать новый торрент и запустить его у себя в клиенте вместо старого, при этом указать клиенту путь в старую папку куда и должно происходить скачивание новых серий.

Ваш клиент при этом должен произвести хеширование (проверку) старой папки (если не производит сам - помогите ему сделать это), и будет докачивать только те серии которых у вас ещё нет. Старые серии при этом не удаляются, а продолжают раздаваться!

Eсли вы уже удалили старые серии, то предотвратить повторную закачку старых серий можно, отжав галочку в соответствующих местах при запуске нового торрента. По возможности, желательно не удалять старые серии как можно дольше, чтобы релизёр не столько продолжал раздавать старые серии, а смог сконцентрироваться на новых.

Информация о торренте:
Размер содержимого: 13.7 GB
Скачан: 383 раза
Статус: Обновляемая раздача
Зарегистрирован на трекере: 2019-03-07 00:08
Скачать торрент


Поддержи раздачу — поставь лайк:
E-mail:
* Это обновляемая раздача и мы можем вас информировать об обновлении торрента в ней.

NewSation
2019-03-04 19:45
не удалось залить торрент

Fatal error: Uncaught Error: Call to undefined function mysql_escape_string() in /tfile.ru/www/forum/common.php:337 Stack trace: #0 /tfile.ru/www/forum/includes/functions_torrent.php(246): log_topic_action('1092064', 4, 'NewSation') #1 /tfile.ru/www/forum/torrent.php(132): delete_torrent(1011053) #2 {main} thrown in /tfile.ru/www/forum/common.php on line 337
Писать комментарии на нашем торрент-трекере могут только зарегистрированные пользователи.
Зарегистрируйтесь или авторизируйтесь на сайте.