»
»

Скачать сериал Анатомия страсти / Анатомия Грей, 15 сезон 1-25 серии из 25 / Grey's Anatomy [TVShows] (Кевин МакКидд, Шандра Уилсон) [2018, Драма, мелодрама, медицина, WEB-DLRip 1080p, P] - торрент

Нажмите на синюю кнопку, чтобы скачать сериал через торрент бесплатно. Сериал доступен на нашем торрент-трекере бесплатно, без регистрации и смс.

Статистика раздачи
76 [ 0 b/s ] ↑ 76.9 GB ↓ 0 [ 0 b/s ]
Автор Сообщение
Lacky1907
2018-11-06 21:38
Анатомия страсти / Анатомия Грей / Grey's Anatomy
Анатомия страсти / Анатомия Грей, 15 сезон 1-25 серии из 25 / Grey's Anatomy [TVShows]
Перевод: Профессиональный (многоголосый закадровый) TVShows Cубтитры: aнглийские
Формат: WEB-DLRip 1080p, MKV, H.264, AC3
Страна: США, ShondaLand, Mark Gordon Company, The Touchstone Television, ABC Studios
Режиссер: Кевин МакКидд, Шандра Уилсон
Жанр: Драма, мелодрама, медицина
Всего серий: 25
Продолжительность: 25 x ~ 00:40:00
Год выпуска: 2018

В ролях: Эллен Помпео, Джастин Чэмберс, Чандра Уилсон, Джеймс Пикенс мл., Кевин МакКидд, Джесси Уильямс, Камилла Ладдингтон, Катерина Скорсоне, Келли МакКрири, Джакомо Джианниотти, Ким Рэйвер

Описание: Анатомия страсти – это захватывающий своим сюжетом, драматичностью и не ординарностью сериал. В фильме описывается жизнь молодых хирургов, которые посвящают свою жизнь работе в клинике, операциям и пациентам. Но так же не забывают про личную жизнь, которую они с лёгкостью устраивают на рабочем месте. Сериал показывает повседневную жизнь простых врачей, их проблемы, разочарования, неудачи и то, как друзья помогают справиться с навалившимися трудностями на работе и в личной жизни. Каждая серия - это история наполненная интересными открытиями в хирургии, жизненными историями взаимопониманием между коллегами.

[imdb=http://www.imdb.com/title/tt0413573/]

Видео: 1920x1080 (16:9), 23,976 fps, AVC (х264), High@L4, ~9607 kbps avg, 0.193 bit/pixel
Аудио 1#: Rus: 48 kHz, AC3 Dolby Digital, 3/2 (L,C,R,l,r) + LFE ch, ~384 kbps
Аудио 2#: Eng: 48 kHz, E-AC-3, 3/2 (L,C,R,l,r) + LFE ch, ~640 kbps

Релиз без рекламы


MediaInfo

Общее
Уникальный идентификатор : 294839039606654686065742500391186754955 (0xDDCFEEFADB8B02D2B30550184D6A6D8B)
Полное имя : I:\Тифайл\Greys.Anatomy.S15.1080p.TVShows\Greys.Anatomy.S15E04.1080p.TVShows.mkv
Формат : Matroska
Версия формата : Version 4 / Version 2
Размер файла : 3,17 Гбайт
Продолжительность : 42 м. 43 с.
Общий поток : 10,6 Мбит/сек
Дата кодирования : UTC 2018-11-06 09:08:50
Программа кодирования : mkvmerge v28.2.0 ('The Awakening') 64-bit
Библиотека кодирования : libebml v1.3.6 + libmatroska v1.4.9

Видео
Идентификатор : 1
Формат : AVC
Формат/Информация : Advanced Video Codec
Профиль формата : High@L4
Параметр CABAC формата : Да
Параметр ReFrames формата : 4 кадра
Идентификатор кодека : V_MPEG4/ISO/AVC
Продолжительность : 42 м. 43 с.
Битрейт : 9607 Кбит/сек
Ширина : 1920 пикселей
Высота : 1080 пикселей
Соотношение сторон : 16:9
Режим частоты кадров : Постоянный
Частота кадров : 23,976 (24000/1001) кадра/сек
Цветовое пространство : YUV
Субдискретизация насыщенности : 4:2:0
Битовая глубина : 8 бит
Тип развёртки : Прогрессивная
Бит/(Пиксели*Кадры) : 0.193
Размер потока : 2,87 Гбайт (90%)
Default : Да
Forced : Нет
Цветовой диапазон : Limited
Основные цвета : BT.709
Характеристики трансфера : BT.709
Коэффициенты матрицы : BT.709

Аудио #1
Идентификатор : 2
Формат : AC-3
Формат/Информация : Audio Coding 3
Параметр Endianness формата : Big
Идентификатор кодека : A_AC3
Продолжительность : 42 м. 43 с.
Вид битрейта : Постоянный
Битрейт : 384 Кбит/сек
Каналы : 6 каналов
Расположение каналов : Front: L C R, Side: L R, LFE
Частота : 48,0 КГц
Частота кадров : 31,250 кадров/сек (1536 spf)
Битовая глубина : 16 бит
Метод сжатия : С потерями
Размер потока : 117 Мбайт (4%)
Заголовок : TVShows
Язык : Russian
ServiceKind/String : Complete Main
Default : Да
Forced : Да

Аудио #2
Идентификатор : 3
Формат : E-AC-3
Формат/Информация : Enhanced Audio Coding 3
Параметр Endianness формата : Big
Идентификатор кодека : A_EAC3
Продолжительность : 42 м. 43 с.
Вид битрейта : Постоянный
Битрейт : 640 Кбит/сек
Каналы : 6 каналов
Расположение каналов : Front: L C R, Side: L R, LFE
Частота : 48,0 КГц
Частота кадров : 187,500 кадров/сек (256 spf)
Метод сжатия : С потерями
Размер потока : 196 Мбайт (6%)
Заголовок : Original
Язык : English
ServiceKind/String : Complete Main
Default : Нет
Forced : Нет

Текст
Идентификатор : 4
Формат : UTF-8
Идентификатор кодека : S_TEXT/UTF8
Идентификатор кодека/Информация : UTF-8 Plain Text
Продолжительность : 42 м. 28 с.
Битрейт : 110 бит/сек
ElementCount : 1160
Размер потока : 34,4 Кбайт (0%)
Заголовок : English
Язык : English
Default : Нет
Forced : Нет


Информация о торренте:
Размер содержимого: 76.9 GB
Скачан: 107 раз
Статус: Проверен
Зарегистрирован на трекере: 2019-11-22 02:38
Скачать торрент


Поддержи раздачу — поставь лайк:
Lacky1907
2018-11-18 16:21
7 серия добавлена
Lacky1907
2018-11-27 08:00
Добавлена 8 серия
Kleopatra772177.
2019-05-14 03:56
Писать комментарии на нашем торрент-трекере могут только зарегистрированные пользователи.
Зарегистрируйтесь или авторизируйтесь на сайте.