»
»

Скачать сериал Стрела, 7 сезон 1-14 серии из 22 / Arrow [TVShows] (Джеймс Бэмфорд, Лаура Белси, Гордон Верхел) [2018, Фантастика, драма, детектив, боевик, приключения, комикс, WEB-DLRip 1080p, P] - торрент

Скачать через торрент сериал вы можете, нажав на синюю кнопку. Сериал доступен на нашем торрент-трекере бесплатно, без регистрации и смс.

Статистика раздачи
6 [ 828.0 KB/s ] ↑ 41.9 GB ↓ 4 [ 957.0 KB/s ]
Автор Сообщение
Lacky1907
2018-11-04 12:32
Стрела / Arrow
Стрела, 7 сезон 1-14 серии из 22 / Arrow [TVShows]
Перевод: Профессиональный (многоголосый закадровый) TVShows субтитры: английски
Формат: WEB-DLRip 1080p, MKV, H.264, AC3
Страна: США, Berlanti Productions, DC Entertainment, Warner Bros. Television
Режиссер: Джеймс Бэмфорд, Лаура Белси, Гордон Верхел
Жанр: Фантастика, драма, детектив, боевик, приключения, комикс
Всего серий: 22
Продолжительность: 14 x ~ 00:42:00
Год выпуска: 2018

В ролях: Стивен Амелл, Дэвид Рэмси, Эмили Бетт Рикардс, Кэти Кэссиди, Колтон Хэйнс, Эко Келлум, Рик Гонсалес, Джулиана Харкви, Кирк Асеведо, Винни Джонс, Майкл Джей Уайт, Холли Элисса

Описание: Избалованный плейбой Оливер Квин, считавшийся погибшим в кораблекрушении вместе с отцом и девушкой, на самом деле пять лет выживал на затерянном острове в Тихом океане, где пересмотрел свой взгляд на жизнь. За это время мир сильно изменился: его мать вышла замуж за нового владельца империи Квинов, младшая сестра подсела на наркотики, а бывшая девушка стала встречаться с лучшим другом Томми Мерлином. Вернувшись к цивилизации, Оливер решил избавить родной город от преступности, создав неуловимого лучника Стрелу.

[imdb=http://www.imdb.com/title/tt2193021/]

1-9 серии
Видео: 1920x1080 (16:9), 23.976 fps, AVC (х264), High@L4, ~11900 kbps avg, 0.238 bit/pixel
Аудио: Rus: 48 kHz, AC3 Dolby Digital, 3/2 (L,C,R,l,r) + LFE ch, ~384 kbps
Аудио: Eng: 48 Khz, AC3 Dolby Digital, 3/2 (L,C,R,l,r) + LFE ch, ~640 kbps

10-11серии
Видео: 1920x1080 (16:9), 23.976 fps, AVC (х264), High@L4, ~5800 kbps avg, 0.117 bit/pixel
Аудио: Rus: 48 kHz, AC3 Dolby Digital, 3/2 (L,C,R,l,r) + LFE ch, ~384 kbps
Аудио: Eng: 48 Khz, AC3 Dolby Digital, 3/2 (L,C,R,l,r) + LFE ch, ~640 kbps

Релиз без рекламы

Перевод:


Внимание! Раздача ведётся путём добавления новых серий

[Внимание! Раздача ведётся путём добавления новых серий; при каждом добавлении создаётся новый торрент. Чтобы начать докачку новой серии, пользователям необходимо сделать следующее:
(1) остановить скачивание,
(2) удалить старый торрент у себя из клиента (старые серии удалять не надо),
(3) скачать новый торрент и запустить его у себя в клиенте вместо старого, при этом указать клиенту путь в старую папку куда и должно происходить скачивание новых серий.

Ваш клиент при этом должен произвести хеширование (проверку) старой папки (если не производит сам - помогите ему сделать это), и будет докачивать только те серии которых у вас ещё нет. Старые серии при этом не удаляются, а продолжают раздаваться!

Eсли вы уже удалили старые серии, то предотвратить повторную закачку старых серий можно, отжав галочку в соответствующих местах при запуске нового торрента. По возможности, желательно не удалять старые серии как можно дольше, чтобы релизёр не столько продолжал раздавать старые серии, а смог сконцентрироваться на новых

MediaInfo
MediaInfo-1

Общее
Уникальный идентификатор : 246268922269896412848898143318594719313 (0xB945AB4F31B2DF994D82BB5982FA8E51)
Полное имя : I:\Тифайл\Arrow.S07.1080p.TVShows\Arrow.S07E01.1080p.TVShows.mkv
Формат : Matroska
Версия формата : Version 4 / Version 2
Размер файла : 3,80 Гбайт
Продолжительность : 42 м. 17 с.
Общий поток : 12,9 Мбит/сек
Дата кодирования : UTC 2018-11-02 09:55:18
Программа кодирования : mkvmerge v28.2.0 ('The Awakening') 64-bit
Библиотека кодирования : libebml v1.3.6 + libmatroska v1.4.9

Видео
Идентификатор : 1
Формат : AVC
Формат/Информация : Advanced Video Codec
Профиль формата : High@L4
Параметр CABAC формата : Да
Параметр ReFrames формата : 4 кадра
Идентификатор кодека : V_MPEG4/ISO/AVC
Продолжительность : 42 м. 17 с.
Битрейт : 11,9 Мбит/сек
Ширина : 1920 пикселей
Высота : 1080 пикселей
Соотношение сторон : 16:9
Режим частоты кадров : Постоянный
Частота кадров : 23,976 (24000/1001) кадра/сек
Цветовое пространство : YUV
Субдискретизация насыщенности : 4:2:0
Битовая глубина : 8 бит
Тип развёртки : Прогрессивная
Бит/(Пиксели*Кадры) : 0.238
Размер потока : 3,50 Гбайт (92%)
Default : Да
Forced : Нет
Цветовой диапазон : Limited
Основные цвета : BT.709
Характеристики трансфера : BT.709
Коэффициенты матрицы : BT.709

Аудио #1
Идентификатор : 2
Формат : AC-3
Формат/Информация : Audio Coding 3
Параметр Endianness формата : Big
Идентификатор кодека : A_AC3
Продолжительность : 42 м. 17 с.
Вид битрейта : Постоянный
Битрейт : 384 Кбит/сек
Каналы : 6 каналов
Расположение каналов : Front: L C R, Side: L R, LFE
Частота : 48,0 КГц
Частота кадров : 31,250 кадров/сек (1536 spf)
Битовая глубина : 16 бит
Метод сжатия : С потерями
Размер потока : 116 Мбайт (3%)
Заголовок : TVShows
Язык : Russian
ServiceKind/String : Complete Main
Default : Да
Forced : Да

Аудио #2
Идентификатор : 3
Формат : E-AC-3
Формат/Информация : Enhanced Audio Coding 3
Параметр Endianness формата : Big
Идентификатор кодека : A_EAC3
Продолжительность : 42 м. 17 с.
Вид битрейта : Постоянный
Битрейт : 640 Кбит/сек
Каналы : 6 каналов
Расположение каналов : Front: L C R, Side: L R, LFE
Частота : 48,0 КГц
Частота кадров : 187,500 кадров/сек (256 spf)
Метод сжатия : С потерями
Размер потока : 194 Мбайт (5%)
Заголовок : Original
Язык : English
ServiceKind/String : Complete Main
Default : Нет
Forced : Нет

Текст
Идентификатор : 4
Формат : UTF-8
Идентификатор кодека : S_TEXT/UTF8
Идентификатор кодека/Информация : UTF-8 Plain Text
Продолжительность : 42 м. 8 с.
Битрейт : 72 бит/сек
ElementCount : 770
Размер потока : 22,5 Кбайт (0%)
Заголовок : English
Язык : English
Default : Нет
Forced : Нет
MediaInfo-2

Общее
Уникальный идентификатор : 168585378527457029083270544028494812268 (0x7ED45CE4FEC1F1ABA1F99FD84915546C)
Полное имя : I:\Arrow.S07.1080p.TVShows\Arrow.S07E10.1080p.TVShows.mkv
Формат : Matroska
Версия формата : Version 4 / Version 2
Размер файла : 1,98 Гбайт
Продолжительность : 41 м. 42 с.
Режим общего битрейта : Переменный
Общий поток : 6790 Кбит/сек
Дата кодирования : UTC 2019-02-14 19:07:41
Программа кодирования : mkvmerge v30.1.0 ('Forever And More') 64-bit
Библиотека кодирования : libebml v1.3.6 + libmatroska v1.4.9

Видео
Идентификатор : 1
Формат : AVC
Формат/Информация : Advanced Video Codec
Профиль формата : Main@L4
Параметр CABAC формата : Да
Параметр ReFrames формата : 3 кадра
Идентификатор кодека : V_MPEG4/ISO/AVC
Продолжительность : 41 м. 42 с.
Вид битрейта : Переменный
Битрейт : 5800 Кбит/сек
Максимальный битрейт : 8700 Кбит/сек
Ширина : 1920 пикселей
Высота : 1080 пикселей
Соотношение сторон : 16:9
Режим частоты кадров : Постоянный
Частота кадров : 23,976 (24000/1001) кадра/сек
Цветовое пространство : YUV
Субдискретизация насыщенности : 4:2:0
Битовая глубина : 8 бит
Тип развёртки : Прогрессивная
Бит/(Пиксели*Кадры) : 0.117
Размер потока : 1,68 Гбайт (85%)
Библиотека кодирования : x264 core 148 r2715 7e75228
Настройки программы : cabac=1 / ref=3 / deblock=1:0:0 / analyse=0x1:0x111 / me=umh / subme=10 / psy=1 / psy_rd=1.00:0.00 / mixed_ref=1 / me_range=24 / chroma_me=1 / trellis=2 / 8x8dct=0 / cqm=0 / deadzone=21,11 / fast_pskip=1 / chroma_qp_offset=-2 / threads=8 / lookahead_threads=1 / sliced_threads=0 / nr=0 / decimate=1 / interlaced=0 / bluray_compat=0 / stitchable=1 / constrained_intra=0 / bframes=2 / b_pyramid=0 / b_adapt=2 / b_bias=0 / direct=3 / weightb=1 / open_gop=0 / weightp=2 / keyint=48 / keyint_min=25 / scenecut=0 / intra_refresh=0 / rc_lookahead=48 / rc=2pass / mbtree=1 / bitrate=5800 / ratetol=1.0 / qcomp=0.50 / qpmin=6 / qpmax=51 / qpstep=4 / cplxblur=20.0 / qblur=0.5 / vbv_maxrate=8700 / vbv_bufsize=11600 / nal_hrd=vbr / filler=0 / ip_ratio=1.40 / aq=1:1.00
Язык : English
Default : Да
Forced : Нет

Аудио #1
Идентификатор : 2
Формат : AC-3
Формат/Информация : Audio Coding 3
Параметр Endianness формата : Big
Идентификатор кодека : A_AC3
Продолжительность : 41 м. 42 с.
Вид битрейта : Постоянный
Битрейт : 384 Кбит/сек
Каналы : 6 каналов
Расположение каналов : Front: L C R, Side: L R, LFE
Частота : 48,0 КГц
Частота кадров : 31,250 кадров/сек (1536 spf)
Битовая глубина : 16 бит
Метод сжатия : С потерями
Размер потока : 115 Мбайт (6%)
Заголовок : TVShows
Язык : Russian
ServiceKind/String : Complete Main
Default : Да
Forced : Да

Аудио #2
Идентификатор : 3
Формат : E-AC-3
Формат/Информация : Enhanced Audio Coding 3
Параметр Endianness формата : Big
Идентификатор кодека : A_EAC3
Продолжительность : 41 м. 42 с.
Вид битрейта : Постоянный
Битрейт : 640 Кбит/сек
Каналы : 6 каналов
Расположение каналов : Front: L C R, Side: L R, LFE
Частота : 48,0 КГц
Частота кадров : 187,500 кадров/сек (256 spf)
Метод сжатия : С потерями
Размер потока : 191 Мбайт (9%)
Заголовок : Original
Язык : English
ServiceKind/String : Complete Main
Default : Нет
Forced : Нет

Текст
Идентификатор : 4
Формат : UTF-8
Идентификатор кодека : S_TEXT/UTF8
Идентификатор кодека/Информация : UTF-8 Plain Text
Продолжительность : 40 м. 44 с.
Битрейт : 72 бит/сек
ElementCount : 615
Размер потока : 21,6 Кбайт (0%)
Заголовок : English
Язык : English
Default : Нет
Forced : Нет


Информация о торренте:
Размер содержимого: 41.9 GB
Скачан: 209 раз
Статус: Обновляемая раздача
Зарегистрирован на трекере: 2019-03-14 15:37
Скачать торрент


Поддержи раздачу — поставь лайк:
E-mail:
* Это обновляемая раздача и мы можем вас информировать об обновлении торрента в ней.

Lacky1907
2018-11-19 15:44
Добавлены 3 и 4 серии
Kleopatra772177.
2019-01-18 01:13
marinabakleneva
2019-02-12 10:31
Lacky1907 большое за интересные релизы!!!!!! Можешь выложить Сериал Стрела 1-6 сезонов с Перевод: профессиональный (многоголосый, закадровый) - Sony Sci-Fi Я буду признателен
Kleopatra772177.
2019-03-11 02:45
Lacky1907
2019-03-11 08:36
marinabakleneva написал(а):
Lacky1907 большое за интересные релизы!!!!!! Можешь выложить Сериал Стрела 1-6 сезонов с Перевод: профессиональный (многоголосый, закадровый) - Sony Sci-Fi Я буду признателен

Пока найти не удалось)) Посмотреть онлайн пожалуйста а скачать нет)) Но я ещё поищу))
Писать комментарии на нашем торрент-трекере могут только зарегистрированные пользователи.
Зарегистрируйтесь или авторизируйтесь на сайте.