»
»

Скачать сериал Ординатор, 2 сезон 1-19 серии из 22 / The Resident [TVShows] (Роб Корн, Джиари МакЛеод) [2018, Драма, медицина, WEB-DLRip 1080p, P] - торрент

Скачать через торрент сериал вы можете, нажав на синюю кнопку. Сериал доступен на нашем торрент-трекере бесплатно, без регистрации и смс.

Статистика раздачи
21 [ 12.0 KB/s ] ↑ 60.6 GB ↓ 1 [ 0 b/s ]
Автор Сообщение
Lacky1907
2018-11-04 12:01
Ординатор / The Resident
Ординатор, 2 сезон 1-19 серии из 22 / The Resident [TVShows]
Перевод: Профессиональный (многоголосый закадровый) TVShows субтитры: английские
Формат: WEB-DLRip 1080p, MKV, H.264, AC3
Страна: США, 20th Century Fox Television, 3 Arts Entertainment, Fuqua Films
Режиссер: Роб Корн, Джиари МакЛеод
Жанр: Драма, медицина
Всего серий: 22
Продолжительность: 19 х ~ 00:46:00
Год выпуска: 2018

В ролях: Мэтт Зукри, Эмили ВанКэмп, Маниш Дайал, Шонетт Рене Уилсон, Брюс Гринвуд, Тассо Фельдман, Джессика Мизел, Винс Фостер, Мальколм-Джамал Уорнер

Описание: Главный герой этого сериала Девон Правеш работает доктором в одной из больниц своего города. Персонаж отличается идеалистическими взглядами на жизнь. Он сразу же показывает свои серьезные намерения, касаемые работы. Однако его руководитель доктор Конрад Хокинс с трудом привыкает к такому сотруднику. Взгляды Девона заставляют Конраду показать молодому сотруднику совершенно иную сторону врачебной практики. Как оказалось, вопрос о жизни и смерти пациента решает не только врач, но и сам пациент. Нередко даже циничный взгляд доктора на происходящее с его пациентом не означает полнейшего провала лечения. Молодой Девон, руководствуясь своим перфекционизмом, начинает постепенно понимать мир Конрада, человека, который всегда великолепно показывал себя в своей профессии, но был холодной и закрытой личностью.

[imdb=http://www.imdb.com/title/tt6483832/]

Видео: 1920x1080 (16:9), 23.976 fps, AVC (х264), High@L4, ~8595 kbps avg, 0.173 bit/pixel
Аудио 1#: Rus: 48 kHz, AC3 Dolby Digital, 3/2 (L,C,R,l,r) + LFE ch, ~384 kbps
Аудио 2#: Eng: 48 Khz, AC3 Dolby Digital, 3/2 (L,C,R,l,r) + LFE ch, ~640 kbps

Релиз без рекламы

Перевод:


Внимание! Раздача ведётся путём добавления новых серий

[Внимание! Раздача ведётся путём добавления новых серий; при каждом добавлении создаётся новый торрент. Чтобы начать докачку новой серии, пользователям необходимо сделать следующее:
(1) остановить скачивание,
(2) удалить старый торрент у себя из клиента (старые серии удалять не надо),
(3) скачать новый торрент и запустить его у себя в клиенте вместо старого, при этом указать клиенту путь в старую папку куда и должно происходить скачивание новых серий.

Ваш клиент при этом должен произвести хеширование (проверку) старой папки (если не производит сам - помогите ему сделать это), и будет докачивать только те серии которых у вас ещё нет. Старые серии при этом не удаляются, а продолжают раздаваться!

Eсли вы уже удалили старые серии, то предотвратить повторную закачку старых серий можно, отжав галочку в соответствующих местах при запуске нового торрента. По возможности, желательно не удалять старые серии как можно дольше, чтобы релизёр не столько продолжал раздавать старые серии, а смог сконцентрироваться на новых

MediaInfo

Общее
Уникальный идентификатор : 125495629779253654491461196546533337579 (0x5E699441BE3B04E83F8DDDC4E64DA9EB)
Полное имя : I:\Тифайл\The.Resident.S02.1080p.TVShows\The.Resident.S02E03.1080p.TVShows.mkv
Формат : Matroska
Версия формата : Version 4 / Version 2
Размер файла : 3,02 Гбайт
Продолжительность : 44 м. 52 с.
Общий поток : 9622 Кбит/сек
Дата кодирования : UTC 2018-10-23 09:20:02
Программа кодирования : mkvmerge v24.0.0 ('Beyond The Pale') 64-bit
Библиотека кодирования : libebml v1.3.6 + libmatroska v1.4.9

Видео
Идентификатор : 1
Формат : AVC
Формат/Информация : Advanced Video Codec
Профиль формата : High@L4
Параметр CABAC формата : Да
Параметр ReFrames формата : 4 кадра
Идентификатор кодека : V_MPEG4/ISO/AVC
Продолжительность : 44 м. 52 с.
Битрейт : 8595 Кбит/сек
Ширина : 1920 пикселей
Высота : 1080 пикселей
Соотношение сторон : 16:9
Режим частоты кадров : Постоянный
Частота кадров : 23,976 (24000/1001) кадра/сек
Цветовое пространство : YUV
Субдискретизация насыщенности : 4:2:0
Битовая глубина : 8 бит
Тип развёртки : Прогрессивная
Бит/(Пиксели*Кадры) : 0.173
Размер потока : 2,69 Гбайт (89%)
Default : Да
Forced : Нет
Цветовой диапазон : Limited
Основные цвета : BT.709
Характеристики трансфера : BT.709
Коэффициенты матрицы : BT.709

Аудио #1
Идентификатор : 2
Формат : AC-3
Формат/Информация : Audio Coding 3
Параметр Endianness формата : Big
Идентификатор кодека : A_AC3
Продолжительность : 44 м. 52 с.
Вид битрейта : Постоянный
Битрейт : 384 Кбит/сек
Каналы : 6 каналов
Расположение каналов : Front: L C R, Side: L R, LFE
Частота : 48,0 КГц
Частота кадров : 31,250 кадров/сек (1536 spf)
Битовая глубина : 16 бит
Метод сжатия : С потерями
Размер потока : 123 Мбайт (4%)
Заголовок : TVShows
Язык : Russian
ServiceKind/String : Complete Main
Default : Да
Forced : Нет

Аудио #2
Идентификатор : 3
Формат : E-AC-3
Формат/Информация : Enhanced Audio Coding 3
Параметр Endianness формата : Big
Идентификатор кодека : A_EAC3
Продолжительность : 44 м. 52 с.
Вид битрейта : Постоянный
Битрейт : 640 Кбит/сек
Каналы : 6 каналов
Расположение каналов : Front: L C R, Side: L R, LFE
Частота : 48,0 КГц
Частота кадров : 187,500 кадров/сек (256 spf)
Метод сжатия : С потерями
Размер потока : 205 Мбайт (7%)
Заголовок : Original
Язык : English
ServiceKind/String : Complete Main
Default : Нет
Forced : Нет

Текст
Идентификатор : 4
Формат : UTF-8
Идентификатор кодека : S_TEXT/UTF8
Идентификатор кодека/Информация : UTF-8 Plain Text
Продолжительность : 44 м. 49 с.
Битрейт : 90 бит/сек
ElementCount : 901
Размер потока : 29,6 Кбайт (0%)
Заголовок : English
Язык : English
Default : Нет
Forced : Нет


Информация о торренте:
Размер содержимого: 60.6 GB
Скачан: 263 раза
Статус: Обновляемая раздача
Зарегистрирован на трекере: 2019-04-08 10:16
Скачать торрент


Поддержи раздачу — поставь лайк:
E-mail:
* Это обновляемая раздача и мы можем вас информировать об обновлении торрента в ней.

Lacky1907
2018-11-06 13:32
добавлена 5 серия
Lacky1907
2018-11-21 09:33
Добавлена 7 серия
Kleopatra772177.
2019-03-29 03:39
Писать комментарии на нашем торрент-трекере могут только зарегистрированные пользователи.
Зарегистрируйтесь или авторизируйтесь на сайте.