»
»

Скачать фильм Интимная жизнь во время оккупации / L'occupation intime (Изабель Кларк) [2011, документальный, биография, военный, история, кинохроника, DVB] DVO - торрент

Скачать торрент фильм можно, нажав на синюю кнопку ниже. Фильм доступен на нашем торрент-трекере бесплатно, без регистрации и смс.

Статистика раздачи
1 [ 0 b/s ] ↑ 1.9 GB ↓ 0 [ 0 b/s ]
Автор Сообщение
ARI71
2018-10-31 18:35
Интимная жизнь во время оккупации / L'occupation intime
Интимная жизнь во время оккупации / L'occupation intime Перевод: Профессиональный (двухголосый), cубтитры: отсутствуют
Формат: DVB, MPEG-PS, MPEG2, MP2
Страна: Франция, CC&C Clarke Costelle Cie, TF1
Режиссер: Изабель Кларк
Жанр: документальный, биография, военный, история, кинохроника
Продолжительность: 01:20:36
Год выпуска: 2011

Описание: Фильм повествует о временах оккупации Франции гитлеровскими войсками. Очевидцы рассказывают о тех страшных событиях. Благодаря новейшим технологиям колоризации, события 1939-1945 годов предстанут на вашем экране в цветном изображении. В документальный фильм вошли ранее секретные материалы, недавнее открытие доступа к которым сыграло решающую роль в заполнении многочисленных белых пятен в истории Второй мировой войны.



Видео: 704x576@768x576 (4:3), 25 fps, MPEG-2 (Main@Main),~3184 kbps avg, 0.314 bit/pixel
Аудио: 48 kHz, MPEG Layer 2, 2 ch, ~192.00 kbps avg

Автор постера - Barents

MediaInfo
Код:
Общее
Полное имя : Интимная жизнь в оккупации\Интимная жизнь в оккупации.mpg
Формат : MPEG-PS
Размер файла : 1,94 Гбайт
Продолжительность : 1 ч. 20 м.
Режим общего битрейта : Переменный
Общий поток : 3445 Кбит/сек

Видео
Идентификатор : 224 (0xE0)
Формат : MPEG Video
Версия формата : Version 2
Профиль формата : Main@Main
Настройки формата : CustomMatrix / BVOP
Параметр BVOP формата : Да
Параметр матрицы формата : Выборочная
Параметр GOP формата : M=3, N=24
Продолжительность : 1 ч. 20 м.
Вид битрейта : Переменный
Битрейт : 3184 Кбит/сек
Максимальный битрейт : 15,0 Мбит/сек
Ширина : 704 пикселя
Высота : 576 пикселей
Соотношение сторон : 4:3
Частота кадров : 25,000 кадров/сек
Стандарт вещания : PAL
Цветовое пространство : YUV
Субдискретизация насыщенности : 4:2:0
Битовая глубина : 8 бит
Метод сжатия : С потерями
Бит/(Пиксели*Кадры) : 0.314
Временной код первого кадра : 00:00:00:00
Оригинал временного кода : Group of pictures header
GOP, открыто/закрыто : Открыто
GOP, открыто/закрыто на первом кадре : Закрыто
Размер потока : 1,79 Гбайт (92%)

Аудио
Идентификатор : 192 (0xC0)
Формат : MPEG Audio
Версия формата : Version 1
Профиль формата : Layer 2
Продолжительность : 1 ч. 20 м.
Вид битрейта : Постоянный
Битрейт : 192 Кбит/сек
Каналы : 2 канала
Частота : 48,0 КГц
Частота кадров : 41,667 кадра/сек (1152 SPF)
Метод сжатия : С потерями
Размер потока : 111 Мбайт (6%)

Информация о торренте:
Размер содержимого: 1.9 GB
Скачан: 348 раз
Статус: Проверен
Зарегистрирован на трекере: 2019-07-20 11:04
Скачать торрент


Поддержи раздачу — поставь лайк:
ARI71
2019-08-13 23:54
Раздача находится на хранении
Писать комментарии на нашем торрент-трекере могут только зарегистрированные пользователи.
Зарегистрируйтесь или авторизируйтесь на сайте.