»
»

Скачать сериал Учителя (1-7 серии из 12) (Илья Куликов) / [2019, драма, мелодрама, WEBRip-AVC] - торрент

Бесплатные торренты всегда на нашем сайте и в хорошем качестве! Сериал доступен на нашем торрент-трекере бесплатно, без регистрации и смс.

Статистика раздачи
1 [ 0 b/s ] ↑ 4.2 GB ↓ 0 [ 0 b/s ]
Автор Сообщение
BLIZNEC W
2018-10-06 23:31
Учителя (1-7 серии из 12)
Учителя Перевод: Не требуется, cубтитры: отсутствуют
Формат: WEBRip-AVC, MKV, H.264, AC3
Страна: Россия
Режиссер: Илья Куликов
Жанр: драма, мелодрама
Всего серий: 12
Продолжительность: 7 х ~ 00:53:00
Год выпуска: 2019

В ролях: Ирина Старшенбаум, Владимир Вдовиченков, Анна Котова-Дерябина, Ольга Дибцева, Маруся Климова, Алексей Ильин, Дмитрий Мазуров, Александр Ревенко, Ирина Чериченко, Егор Морозов, Савелий Кудряшов, Юлия Майборода, Алла Миронова, Руслан Герман, Руслан Медведев, Никита Абдулов, Михаил Бочаров, Илья Каданцев, Татьяна Мухина, Сергей Галахов, Александра Бадаева

Описание: Сергей, отец Маши и Тани, занимает высокий пост заместителя министра образования и постоянно меняет женщин, некоторые из которых – ровесницы его детей. Младшая дочь, Маша, – идеалистка: она категорически против участия отца в своей карьере и желает всего добиться сама. Она идет работать в обычную школу, где у неё начинается роман с отцом одного из своих учеников. Старшая дочь, Татьяна, напротив, с радостью пользуется служебным положением отца ради своей карьеры – но совершенно несчастна в семейной жизни. Она заводит интрижки с разными мужчинами, отчаянно пытаясь заполнить пустоту внутри себя.
«Вся правда о российском образовании»
Рейтинг и доп. информация:


Видео: 1024x432 (2,40:1), 25 fps, AVC MPEG-4 (x264), High@L4.1 ~ 1600 kbps avg, 0.145 bit/pixel
Аудио: 48 kHz, AC3, 2/0 (L,R) ch, ~192.00 kbps avg
Внимание! Раздача ведётся путём добавления новых серий
Внимание! Раздача ведётся путём добавления новых серий. При каждом добавлении создаётся новый торрент.
Чтобы начать докачку новой серии, пользователям необходимо сделать следующее:
1. Остановить скачивание.
2. Удалить старый торрент у себя из клиента (старые серии удалять не надо).
3. Скачать новый торрент и запустить его у себя в клиенте вместо старого, при этом указать клиенту путь в старую папку куда и должно происходить скачивание новых серий. Ваш клиент при этом должен произвести хеширование (проверку) старой папки и будет докачивать только те серии, которых у вас ещё нет. Старые серии при этом не удаляются, а продолжают раздаваться! Eсли вы уже удалили старые серии, то предотвратить повторную закачку старых серий можно, отжав галочку в соответствующих местах при запуске нового торрента.

MediaInfo
Общее
Уникальный идентификатор : 196043490044587714343942487857171881996 (0x937C9A504EE372C48EDD3CEF2815600C)
Полное имя : C:Uchitelya.(2018).WEB-DLRip.(AVC).Files-x\01.Uchitelya.(2018).WEB-DLRip.(AVC).by.Серый1779.Files-x.mkv
Формат : Matroska
Версия формата : Version 2
Размер файла : 689 Мбайт
Продолжительность : 53 м. 42 с.
Общий поток : 1793 Кбит/сек
Дата кодирования : UTC 2019-08-22 22:41:22
Программа кодирования : mkvmerge v7.8.0 ('River Man') 32bit built on Apr 3 2015 12:11:22
Библиотека кодирования : libebml v1.3.1 + libmatroska v1.4.2

Видео
Идентификатор : 1
Формат : AVC
Формат/Информация : Advanced Video Codec
Профиль формата : High@L4.1
Настройки формата : CABAC / 9 Ref Frames
Параметр CABAC формата : Да
Параметр RefFrames формата : 9 кадров
Идентификатор кодека : V_MPEG4/ISO/AVC
Продолжительность : 53 м. 42 с.
Битрейт : 1600 Кбит/сек
Ширина : 1024 пикселя
Высота : 432 пикселя
Соотношение сторон : 2,40:1
Режим частоты кадров : Постоянный
Частота кадров : 25,000 кадров/сек
Цветовое пространство : YUV
Субдискретизация насыщенности : 4:2:0
Битовая глубина : 8 бит
Тип развёртки : Прогрессивная
Бит/(Пиксели*Кадры) : 0.145
Размер потока : 601 Мбайт (87%)
Библиотека кодирования : x264 core 146 r2538 121396c
Настройки программы : cabac=1 / ref=9 / deblock=1:-2:-1 / analyse=0x3:0x133 / me=umh / subme=9 / psy=1 / psy_rd=1.00:0.15 / mixed_ref=1 / me_range=32 / chroma_me=1 / trellis=2 / 8x8dct=1 / cqm=0 / deadzone=21,11 / fast_pskip=0 / chroma_qp_offset=-3 / threads=18 / lookahead_threads=3 / sliced_threads=0 / nr=0 / decimate=1 / interlaced=0 / bluray_compat=0 / constrained_intra=0 / bframes=9 / b_pyramid=2 / b_adapt=2 / b_bias=0 / direct=1 / weightb=1 / open_gop=0 / weightp=2 / keyint=250 / keyint_min=25 / scenecut=40 / intra_refresh=0 / rc=2pass / mbtree=0 / bitrate=1600 / ratetol=1.0 / qcomp=0.60 / qpmin=0 / qpmax=69 / qpstep=4 / cplxblur=20.0 / qblur=0.5 / ip_ratio=1.40 / pb_ratio=1.30 / aq=2:1.00
Default : Да
Forced : Нет
Цветовой диапазон : Limited
Основные цвета : BT.709
Характеристики трансфера : BT.709
Коэффициенты матрицы : BT.709

Аудио
Идентификатор : 2
Формат : AC-3
Формат/Информация : Audio Coding 3
Коммерческое название : Dolby Digital
Идентификатор кодека : A_AC3
Продолжительность : 53 м. 42 с.
Вид битрейта : Постоянный
Битрейт : 192 Кбит/сек
Каналы : 2 канала
ChannelLayout : L R
Частота : 48,0 КГц
Частота кадров : 31,250 кадров/сек (1536 SPF)
Битовая глубина : 16 бит
Метод сжатия : С потерями
Размер потока : 73,7 Мбайт (11%)
ServiceKind/String : Complete Main
Default : Да
Forced : Нет

Информация о торренте:
Размер содержимого: 4.2 GB
Скачан: 192 раза
Статус: Обновляемая раздача
Зарегистрирован на трекере: 2019-09-18 14:38
Скачать торрент


Поддержи раздачу — поставь лайк:
E-mail:
* Это обновляемая раздача и мы можем вас информировать об обновлении торрента в ней.

BLIZNEC W
2018-10-06 22:31
Интересного и приятного просмотра!!!

Мои раздачи
lara321
2018-10-31 08:19
BLIZNEC W
извините,будет продолжение фильма или не ждать?!
Писать комментарии на нашем торрент-трекере могут только зарегистрированные пользователи.
Зарегистрируйтесь или авторизируйтесь на сайте.