»
»

Скачать сериал Морские дьяволы (1-30 серии из 48) Рубежи Родины (Александр Картохин) / [2018-2019, боевик, криминал, приключения, WEBRip 1080p] - торрент

Нажмите на синюю кнопку, чтобы скачать сериал через торрент бесплатно. Сериал доступен на нашем торрент-трекере бесплатно, без регистрации и смс.

Статистика раздачи
91 [ 0 b/s ] ↑ 64.3 GB ↓ 0 [ 0 b/s ]
Автор Сообщение
BLIZNEC W
2018-09-07 23:01
Морские дьяволы (1-30 серии из 48) Рубежи Родины
Морские дьяволы Перевод: Не требуется, cубтитры: отсутствуют
Формат: WEBRip 1080p, MKV, H.264, AC3
Страна: Россия
Режиссер: Александр Картохин
Жанр: боевик, криминал, приключения
Всего серий: 48
Продолжительность: 30 x ~ 00:50:00
Год выпуска: 2018-2019

В ролях: Олег Чернов, Дарья Юргенс, Иван Паршин, Александра Большакова, Виталий Бисеров, Антон Гуляев, Антон Багров, Снежана Прудько, Игорь Григорьев (III), Захар Черезов, Дарья Сыромля, Мария Синяева, Владимир Маслаков, Александр Эрлих, Андрей Вергелис, Игорь Романов, Андрей Смелов, Арвид Зеланд, Евгений Антонов, Алексей Фролов (II), Егор Закреничный, Алан Казико, Алексей Торковер, Виталий Кривонос, Антон Чернов, Александр Строев (III), Руслан Ягудин, Андрей Коровниченко, Владимир Потапов, Наталья Ляхова, Алексей Егоршин, Сергей Чиненов, Илья Фалюшин, Марк Щербаков, Анна Митрофанова, Сергей Видрашку, Андрей Гудим, Пётр Зубарев, Денис Крутовских, Олег Козовников, Сергей Евдокимов (II), Игорь Ботвин, Михаил Бондарук, Михаил Рябов, Роман Ласыгин, Борис Хасанов, Иван Купреенко, Алексей Белозерцев, Виталий Кононов, Юлия Полынская, Никита Рогов, Дмитрий Гульнев, Сергей Воробьёв (IV), Сергей Линьков, Олег Кутейников, Алан Томаев, Михаил Сакулин, Марк Гаврилов, Николай Замула, Игорь Николаев, Андрей Благословенский, Максим Фомин, Вячеслав Гасай, Станислав Каблуков, Александр Плаксин, Кристина Убелс, Максим Карлышев, Екатерина Шумакова, Анастасия Тюнина, Андрей Бабенко

Описание: Из северных приграничных регионов отряд «НЕРПЫ» перебрасывается на секретную военную базу, местоположение которой строго засекречено, и каждое задание «НЕРП» – это боевой вылет (выезд) к месту проведения операции в разных уголках нашей страны. «Нерпами» по-прежнему командуют Бизон, Батя и Багира. В составе отряда: Кот, Сармат, Дана, Агата и Опер. Новые сюжеты развиваются в современных реалиях, в контексте, близком к сегодняшней геополитической ситуации, на фоне основных международных конфликтов, в том числе в информационной среде. В данном сезоне герои попадают в ещё более реалистичные и экстремальные ситуации. В основе каждого нового фильма по-прежнему остается остросюжетная детективная история.

Рейтинг и доп. информация:


Видео: 1920х1080, (16:9), 25 fps, AVC MPEG-TS (x264), High@L4.1 ~ 6000 kbps avg, 0.116 bit/pixel
Аудио: 48 kHz, AC3 , 2/0 (L,R) ch, ~192.00 kbps avg
MediaInfo
Общее
Уникальный идентификатор : 186778893916637718281956210461297519242 (0x8C844E754CD55CB9B2A3FDDF4AAAAA8A)
Полное имя : C:\Morskie.dyavoly.Rubezhi.Rodiny.2018.WEB-DL.(1080p).Nikolspup\Morskie.dyavoly.Rubezhi.Rodiny.(01.seriya).2018.WEB-DL.(1080p).Nikolspup.mkv
Формат : Matroska
Версия формата : Version 4
Размер файла : 2,16 Гбайт
Продолжительность : 50 м. 0 с.
Режим общего битрейта : Постоянный
Общий поток : 6172 Кбит/сек
Дата кодирования : UTC 2018-09-07 18:28:06
Программа кодирования : mkvmerge v7.8.0 ('River Man') 32bit built on Mar 27 2015 16:18:02
Библиотека кодирования : libebml v1.3.1 + libmatroska v1.4.2

Видео
Идентификатор : 1
Формат : AVC
Формат/Информация : Advanced Video Codec
Профиль формата : High@L4.1
Настройки формата : 2 Ref Frames
Параметр CABAC формата : Нет
Параметр RefFrames формата : 2 кадра
Идентификатор кодека : V_MPEG4/ISO/AVC
Продолжительность : 50 м. 0 с.
Вид битрейта : Постоянный
Битрейт : 6000 Кбит/сек
Ширина : 1920 пикселей
Высота : 1080 пикселей
Соотношение сторон : 16:9
Режим частоты кадров : Постоянный
Частота кадров : 25,000 кадров/сек
Стандарт вещания : PAL
Цветовое пространство : YUV
Субдискретизация насыщенности : 4:2:0
Битовая глубина : 8 бит
Тип развёртки : Прогрессивная
Бит/(Пиксели*Кадры) : 0.116
Размер потока : 2,05 Гбайт (95%)
Default : Да
Forced : Нет
Цветовой диапазон : Limited
Основные цвета : BT.709
Характеристики трансфера : BT.709
Коэффициенты матрицы : BT.709

Аудио
Идентификатор : 2
Формат : AC-3
Формат/Информация : Audio Coding 3
Коммерческое название : Dolby Digital
Идентификатор кодека : A_AC3
Продолжительность : 50 м. 0 с.
Вид битрейта : Постоянный
Битрейт : 192 Кбит/сек
Каналы : 2 канала
Channel layout : L R
Частота : 48,0 КГц
Частота кадров : 31,250 кадров/сек (1536 SPF)
Битовая глубина : 16 бит
Метод сжатия : С потерями
Размер потока : 68,7 Мбайт (3%)
Язык : Russian
ServiceKind/String : Complete Main
Default : Да
Forced : Нет

Информация о торренте:
Размер содержимого: 64.3 GB
Скачан: 443 раза
Статус: Обновляемая раздача
Зарегистрирован на трекере: 2019-03-28 08:47
Скачать торрент


Поддержи раздачу — поставь лайк:
E-mail:
* Это обновляемая раздача и мы можем вас информировать об обновлении торрента в ней.

BLIZNEC W
2018-09-07 22:01
Интересного и приятного просмотра!!!

Мои раздачи
zizmo_s
2019-04-03 09:29
Спасибо! Посмотрим.
Писать комментарии на нашем торрент-трекере могут только зарегистрированные пользователи.
Зарегистрируйтесь или авторизируйтесь на сайте.